img image001 image001 image001 image001 image001 image001 image001 image001 image001 image001 image001 image001 image001 image001 image001
Planets Sun Sun Sun
Статистика раздачи
Автор: PriZraK | Размер: 12.95 ГБ | Добавлен: 12 фев 2018
Раздают: 0    Качают: 0
Скачать торрент
Скачать торрент
Описание торрента

СообщениеДобавлено: 12 фев 2018 

Склифосовский (6 сезон 1-16 серии из 16)

Перевод: Не требуется, cубтитры: отсутствуют
Формат: WEB-DLRip-AVC, MKV, H.264, AC3
Страна: Россия
Режиссер: Юлия Краснова
Жанр: драма, мелодрама
Всего серий: 16
Продолжительность: 16 x ~ 00:53:00
Год выпуска: 2017

В ролях: Максим Аверин, Мария Куликова, Константин Юшкевич, Евгения Дмитриева, Александр Сирин, Иван Шабалтас, Владимир Жеребцов, Андрей Барило, Анна Якунина, Екатерина Травова, Елена Яковлева, Владимир Довжик, Олег Чернов, Мария Рыщенкова, Дмитрий Жульков, Елена Папанова, Ирина Основина, Валерий Ярёменко, Леонид Громов, Александр Сетейкин, Светлана Закирова, Сергей Климов, Инна Стерлигова, Елена Захарова (II), Татьяна Аугшкап, Константин Лукич, Сергей Терещук, Олег Билик, Валентин Валл, Мария Чувилина, Константин Новиков (II), Шухрат Иргашев, Анна Масальская, Иван Агапов, Михаил Руденко, Андрей Ильин, Юрий Назаров, Анна Телицына, Олег Дуленин, Александр Стефанцов, Ольга Цинк, Михаил Панюков, Егор Ковалёв

Описание: В новом сезоне зрителям предстоит узнать каково же талантливому хирургу Брагину (Максим Аверин) за плечами у которого блестящая практика и сотни спасенных жизней, трястись в карете скорой помощи, куда его сослали в прошлом сезоне? Тем временем, в институте появляется новый врач – челюстно-лицевой хирург Кривицкий (Андрей Ильин). В Склифе он встретится с актрисой Еленой Яковлевой, дуэт с которой в сериале «Каменская» когда-то сделал из театрального актера звезду экрана. Герой Ильина – хирург, проживший много лет в эмиграции. Зачем спустя 30 лет успешный израильский врач возвращается на Родину? И что за скелеты скрывает он в своем шкафу?.. В семейной жизни Брагина и нейрохирурга Марины (Мария Куликова) не все гладко. Сможет ли Марина устоять перед славой, которая на нее обрушилась после проведения уникальной операции, и сохранить семью? У Нарочинской также появляется тайна, которой она никак не решается поделиться с любимым мужем. В последней серии прошлого сезона Брагин доставил Нину (Анна Якунина) в Склиф после попытки самоубийства. Он уверен, что до такого состояния Нину из ревности довела властная Павлова (Елена Яковлева). И пока врачи Склифа борются за жизнь Нины, у ее постели дежурят сразу двое любящих ее мужчин – санитар Аскеров (Олег Чернов) и внезапно вернувшийся из-за границы Неклюдов (Андрей Барило). Костя (Владимир Жеребцов) вместе с Сашей (Мария Рыщенкова) доставляют в Склиф молодого человека Кирилла, которого Костя, защищая Сашу, избил до полусмерти. Кирилл в коме, в тяжелом состоянии. Косте грозит 12 лет тюрьмы, но несмотря на это, он готов сделать признание. Однако Саша всеми силами отговаривает его, ведь если Кирилл умрет, дело можно будет замять.

Рейтинг и доп. информация:


Видео: 1024x576 (16:9), 25 fps, AVC MPEG-4 (x264), ~ 2000 kbps , 0.136 bit/pixel
Аудио: 44 kHz, AC3, 2/0 (L,R) ch, ~192.00 kbps avg
Общее
Уникальный идентификатор : 248159561485820096871456236275024304096 (0xBAB1CB0501DB66FF998605830FB497E0)
Полное имя : C:\Склифосовский.(6.сезон).(2017).WEB-DLRip.(AVC).\01.Склифосовский.(6.сезон).(2017).WEB-DLRip.(AVC).mkv
Формат : Matroska
Версия формата : Version 2
Размер файла : 826 Мбайт
Продолжительность : 52 м. 38 с.
Общий поток : 2193 Кбит/сек
Дата кодирования : UTC 2018-01-22 22:50:38
Программа кодирования : mkvmerge v7.8.0 ('River Man') 32bit built on Apr 3 2015 12:11:22
Библиотека кодирования : libebml v1.3.1 + libmatroska v1.4.2

Видео
Идентификатор : 1
Формат : AVC
Формат/Информация : Advanced Video Codec
Профиль формата :
Настройки формата : CABAC / 9 Ref Frames
Параметр CABAC формата : Да
Параметр RefFrames формата : 9 кадров
Идентификатор кодека : V_MPEG4/ISO/AVC
Продолжительность : 52 м. 38 с.
Битрейт : 2000 Кбит/сек
Ширина : 1024 пикселя
Высота : 576 пикселей
Соотношение сторон : 16:9
Режим частоты кадров : Постоянный
Частота кадров : 25,000 кадров/сек
Цветовое пространство : YUV
Субдискретизация насыщенности : 4:2:0
Битовая глубина : 8 бит
Тип развёртки : Прогрессивная
Бит/(Пиксели*Кадры) : 0.136
Размер потока : 737 Мбайт (89%)
Библиотека кодирования : x264 core 146 r2538 121396c
Настройки программы : cabac=1 / ref=9 / deblock=1:-2:-1 / analyse=0x3:0x133 / me=umh / subme=9 / psy=1 / psy_rd=1.00:0.15 / mixed_ref=1 / me_range=32 / chroma_me=1 / trellis=2 / 8x8dct=1 / cqm=0 / deadzone=21,11 / fast_pskip=0 / chroma_qp_offset=-3 / threads=18 / lookahead_threads=3 / sliced_threads=0 / nr=0 / decimate=1 / interlaced=0 / bluray_compat=0 / constrained_intra=0 / bframes=9 / b_pyramid=2 / b_adapt=2 / b_bias=0 / direct=1 / weightb=1 / open_gop=0 / weightp=2 / keyint=250 / keyint_min=25 / scenecut=40 / intra_refresh=0 / rc=2pass / mbtree=0 / bitrate=2000 / ratetol=1.0 / qcomp=0.60 / qpmin=0 / qpmax=69 / qpstep=4 / cplxblur=20.0 / qblur=0.5 / ip_ratio=1.40 / pb_ratio=1.30 / aq=2:1.00
Default : Да
Forced : Нет
Цветовой диапазон : Limited
Основные цвета : BT.709
Характеристики трансфера : BT.709
Коэффициенты матрицы : BT.709

Аудио
Идентификатор : 2
Формат : AC-3
Формат/Информация : Audio Coding 3
Идентификатор кодека : A_AC3
Продолжительность : 52 м. 38 с.
Вид битрейта : Постоянный
Битрейт : 192 Кбит/сек
Каналы : 2 канала
Расположение каналов : Front: L R
Частота : 44,1 КГц
Частота кадров : 28,711 кадров/сек (1536 SPF)
Битовая глубина : 16 бит
Метод сжатия : С потерями
Размер потока : 72,3 Мбайт (9%)
ServiceKind/String : Complete Main
Default : Да
Forced : Нет











   Похожие торренты   Торрент   Размер 
В этой теме нет новых непрочитанных сообщений. Склифосовский (6 сезон 1-16 серии из 16) (Юлия Краснова) [2017, драма, мелодрама, WEB-DL 1080p]

0 | 0

19.52 ГБ

В этой теме нет новых непрочитанных сообщений. Склифосовский (6 сезон 1-16 серии из 16) (Юлия Краснова) [2017, драма, мелодрама, SATRip]

32 | 12

11.22 ГБ

В этой теме нет новых непрочитанных сообщений. Склифосовский / Склиф (4 сезон 1 - 24 серии из 24 ) (Юлия Краснова) [2014-2015, драма, мелодрама, HDTVRip 720p]

8 | 7

28.58 ГБ

В этой теме нет новых непрочитанных сообщений. Склифосовский / Склиф (1 сезон 1 - 24 серии из 24 ) (Андрей Селиванов) [2012, драма, мелодрама, HDTVRip 720p]

21 | 7

28.81 ГБ

В этой теме нет новых непрочитанных сообщений. Склифосовский / Склиф (3 сезон 1 - 24 серии из 24 ) (Андрей Селиванов) [2013, драма, мелодрама, HDTVRip 720p]

14 | 5

37.33 ГБ

В этой теме нет новых непрочитанных сообщений. Склифосовский / Склиф (2 сезон 1 - 24 серии из 24 ) (Андрей Селиванов) [2012-2013, драма, мелодрама, HDTVRip 720p]

8 | 14

30.33 ГБ

В этой теме нет новых непрочитанных сообщений. Чёрная любовь / Слепая любовь, 2 сезон 1-99 (36-74) серии из 39 (74) / Kara Sevda [Ирина Котова] (Озлем Йильмаз) [2016-2017, драма, мелодрама, WEB-DLRip, L1]

64 | 99

61.42 ГБ




Вы не можете начинать темы
Вы не можете отвечать на сообщения
Вы не можете редактировать свои сообщения
Вы не можете удалять свои сообщения
Вы не можете добавлять вложения

Перейти:  
Для Мосгорсуда, Роскомнадзора и рекламодателей: mosgorsud-torrent[собачка]yandex.ru
 Вход
ppkBB3cker v.2 © 2008-2014 @ PPK
[ Time : 0.045s | 17 Queries | GZIP : Off ]

cron