img image001 image001 image001 image001 image001 image001 image001 image001 image001 image001 image001 image001 image001 image001 image001
Planets Sun Sun Sun
Статистика раздачи
Автор: PriZraK | Размер: 8.86 ГБ | Добавлен: 12 фев 2018
Раздают: 7    Качают: 0
Скачать торрент
Скачать торрент
Описание торрента

СообщениеДобавлено: 12 фев 2018 

Обмани, если любишь / Год обмана (1-8 серии из[b] 8)[/b]

Перевод: Не требуется, cубтитры: отсутствуют
Формат: WEB-DL 1080p, MKV, H.264, AC3
Страна: Россия
Режиссер: Дмитрий Тюрин
Жанр: мелодрама
Всего серий: 8
Продолжительность: 8 x ~ 00:45:00
Год выпуска: 2014

В ролях: Никита Смольянинов, Юлия Хлынина, Сергей Чирков, Марина Зудина, Игорь Миркурбанов, Юлия Рутберг, Сергей Власов (S.A.V.), Алика Смехова, Александр Орав, Лука Барбарески, Иван Моховиков, Алексей Гришин, Ольга Хохлова, Светлана Захарова, Марина Митрофанова, Людмила Гнилова, Геннадий Егоров (II), Сергей Неудачин, Наталья Бардо, Борис Геласимов, Виталия Корниенко, Сергей Стёпин

Описание: «Лоховедение», «Бух-учет» и «Мат-анализ» преподает обаятельный раздолбай Михаил инфантильному сыну своего шефа Сергею на уроках жизни. Михаил снова влип в историю - устроил в офисе вечеринку, которая закончилась пожаром. Последует увольнение? Совсем нет. Михаила ждет неплохая зарплата, персональный автомобиль, свободный график. А работа, которую требуется выполнить – обучить всем жизненным удовольствиям Сергея, кандидата в чемпионы-«ботаны». Михаил с энтузиазмом принимается за дело. «Госэкзаменом» должна стать будущая актриса Марина. Сергею нужно влюбить ее в себя. Но все идет не по учебному плану. Михаил сам влюбляется в Марину, а Сергей из стеснительного буки превращается в жесткого манипулятора с деньгами и властью. Михаил не в силах справится с Сергеем – ведь этого монстра он воспитал сам…

Рейтинг и доп. информация:


Видео: 1920x1080р (16:9), 25.000 fps, MPEG4 AVC (х264) , ~ 3000 kbps avg, 0.057 bit/pixel
Аудио: 44,1 kHz, AC3 Dolby Digital, 2/0 (L,R) ch, ~192.00 kbps avg

Общее
Уникальный идентификатор : 149807523707854824149569728921557664393 (0x70B3E12C2D7391B492F7283711EA0289)
Полное имя : Obmani.esli.liubich..2014.WEB-DL.1080.\01.Obmani.esli.liubich..2014.WEB-DL.1080.mkv
Формат : Matroska
Версия формата : Version 4 / Version 2
Размер файла : 1,09 Гбайт
Продолжительность : 48 м.
Общий поток : 3223 Кбит/сек
Программа кодирования : Lavf56.25.101
Библиотека кодирования : Lavf56.25.101

Видео
Идентификатор : 1
Формат : AVC
Формат/Информация : Advanced Video Codec
Профиль формата :
Параметр CABAC формата : Да
Параметр ReFrames формата : 2 кадра
Идентификатор кодека : V_MPEG4/ISO/AVC
Продолжительность : 48 м.
Битрейт : 3000 Кбит/сек
Ширина : 1920 пикселей
Высота : 1080 пикселей
Соотношение сторон : 16:9
Режим частоты кадров : Постоянный
Частота кадров : 25,000 кадров/сек
Цветовое пространство : YUV
Субдискретизация насыщенности : 4:2:0
Битовая глубина : 8 бит
Тип развёртки : Прогрессивная
Бит/(Пиксели*Кадры) : 0.057
Размер потока : 1,00 Гбайт (92%)
Default : Да
Forced : Нет

Аудио
Идентификатор : 2
Формат : AC-3
Формат/Информация : Audio Coding 3
Расширение режима : CM (complete main)
Параметр Endianness формата : Big
Идентификатор кодека : A_AC3
Продолжительность : 48 м.
Вид битрейта : Постоянный
Битрейт : 192 Кбит/сек
Каналы : 2 канала
Расположение каналов : Front: L R
Частота : 44,1 КГц
Метод сжатия : С потерями
Задержка видео : 29 мс.
Размер потока : 66,5 Мбайт (6%)
Default : Да
Forced : Нет











   Похожие торренты   Торрент   Размер 
В этой теме нет новых непрочитанных сообщений. Обмани, если любишь / Год обмана (1-8 серии из 8) (Дмитрий Тюрин) [2014, мелодрама, WEBDLRip]

11 | 0

5.09 ГБ

В этой теме нет новых непрочитанных сообщений. Любoвь с oграничениями (Дмитрий Тюрин) [2016, комедия, мелодрама, BDRip-AVC]

26 | 0

1.68 ГБ

В этой теме нет новых непрочитанных сообщений. Обмани, если любишь [01-04 из 08] (2014) WEB-DL 1080p от Files-x

28 | 6

6.66 ГБ

В этой теме нет новых непрочитанных сообщений. Обмани, если любишь [01-08 из 08] (2014) WEB-DLRip | КПК

197 | 33

1.77 ГБ

В этой теме нет новых непрочитанных сообщений. Обмани, если любишь [01-05 из 08] (2014) SATRip

51 | 47

2.69 ГБ

В этой теме нет новых непрочитанных сообщений. Обмани, если любишь [01-04 из 08] (2014) WEB-DLRip от Files-x

26 | 2

3.81 ГБ

В этой теме нет новых непрочитанных сообщений. Обмани, если любишь [01-08 из 08] (2014) WEB-DLRip-AVC от Files-x

131 | 59

4.19 ГБ




Вы не можете начинать темы
Вы не можете отвечать на сообщения
Вы не можете редактировать свои сообщения
Вы не можете удалять свои сообщения
Вы не можете добавлять вложения

Перейти:  
Для Мосгорсуда, Роскомнадзора и рекламодателей: mosgorsud-torrent[собачка]yandex.ru
 Вход
ppkBB3cker v.2 © 2008-2014 @ PPK
[ Time : 0.060s | 17 Queries | GZIP : Off ]

cron