img image001 image001 image001 image001 image001 image001 image001 image001 image001 image001 image001 image001 image001 image001 image001
Planets Sun Sun Sun
Статистика раздачи
Автор: PriZraK | Размер: 13.59 ГБ | Добавлен: 12 фев 2018
Раздают: 8    Качают: 24
Скачать торрент
Скачать торрент
Описание торрента

СообщениеДобавлено: 12 фев 2018 

Остров (1-24 серии из 24 + Фильм о съёмках)

Перевод: Не требуется
Субтитры: отсутствуют
Формат: WEBRip 720p, MKV, H.264, AC3
Страна: Россия
Режиссер: Михаил Старчак, Артем Насыбулин, Александр Наумов
Жанр: комедия
Всего серий: 24
Продолжительность: 24 x ~ 00:41:14; 1 x ~ 00:25:45
Год выпуска: 2016

В ролях: Янина Студилина,Денис Косяков,Ирина Вилкова,Кирилл Мелехов,Анастасия Асеева,Анфиса Вистингаузен,Евгений Кулик,Григорий Калинин,Роман Хан,Олеся Жураковская.

Описание: Съемочная группа прибывает на необитаемый остров для создания нового реалити-шоу «Остров». По замыслу продюсеров, участники должны бороться друг с другом, с самими собой и с условиями дикой природы, в которые они попадут. Они будут выполнять задания, накапливая деньги в общий банк и зарабатывая рейтинг в глазах телезрителей.
Однако все пойдет против плана, когда яхта со съемочной группой неожиданно взорвется. Приняв это за сигнал к старту шоу, участники вступают в игру, даже не догадываясь, что они в западне. Их никто не будет снимать и искать. Связь с цивилизацией отсутствует. В голове только одно — победить в шоу, которого нет.




Видео: 1280x720p, 25,000 fps, MPEG4 AVC (x264), ~2768 Kbps avg, 0.120 bit/pixel
Аудио: 48 kHz, AC3, 2 ch ~ 192 Kbps

Релиз от:

Релиз предоставлен сайтом tfile.me!!


Общее
Уникальный идентификатор : 197383087093967964316801323670259797023 (0x947E998C2A0C082DA50EE41C0CE28C1F)
Полное имя : F:\TREKER\ТЕМР\ostrov_s01_[tfile.ru]\ostrov_s01_[tfile.ru]_e01.mkv
Формат : Matroska
Версия формата : Version 2
Размер файла : 891 Мбайт
Продолжительность : 41 м. 14 с.
Общий поток : 3020 Кбит/сек
Название фильма : ostrov_s01_[tfile.ru]
Дата кодирования : UTC 2018-02-07 08:33:44
Программа кодирования : mkvmerge v4.0.0 ('The Stars were mine') сборка от Jun 6 2010 16:18:42
Библиотека кодирования : libebml v1.0.0 + libmatroska v1.0.0
Обложка : Yes
Attachments : cover.jpg

Видео
Идентификатор : 1
Формат : AVC
Формат/Информация : Advanced Video Codec
Профиль формата :
Параметр CABAC формата : Да
Параметр ReFrames формата : 1 кадр
Параметр GOP формата : M=1, N=12
Идентификатор кодека : V_MPEG4/ISO/AVC
Продолжительность : 41 м. 14 с.
Битрейт : 2768 Кбит/сек
Ширина : 1280 пикселей
Высота : 720 пикселей
Соотношение сторон : 16:9
Режим частоты кадров : Постоянный
Частота кадров : 25,000 кадров/сек
Стандарт вещания : Component
Цветовое пространство : YUV
Субдискретизация насыщенности : 4:2:0
Битовая глубина : 8 бит
Тип развёртки : Прогрессивная
Бит/(Пиксели*Кадры) : 0.120
Размер потока : 816 Мбайт (92%)
Default : Нет
Forced : Нет
Цветовой диапазон : Limited

Аудио
Идентификатор : 2
Формат : AC-3
Формат/Информация : Audio Coding 3
Расширение режима : CM (complete main)
Параметр Endianness формата : Big
Идентификатор кодека : A_AC3
Продолжительность : 41 м. 14 с.
Вид битрейта : Постоянный
Битрейт : 192 Кбит/сек
Каналы : 2 канала
Расположение каналов : Front: L R
Частота : 48,0 КГц
Частота кадров : 31,250 кадров/сек (1536 spf)
Битовая глубина : 16 бит
Метод сжатия : С потерями
Размер потока : 56,6 Мбайт (6%)
Default : Нет
Forced : Нет










   Похожие торренты   Торрент   Размер 
В этой теме нет новых непрочитанных сообщений. Остров (2 сезон 1-7 серии из 24) (Артем Насыбулин, Михаил Старчак, Александр Наумов (II)) [2017, комедия, HDTVRip 720p]

22 | 43

4.18 ГБ

В этой теме нет новых непрочитанных сообщений. Остров (2 сезон 1-6 серии из 24) (Артем Насыбулин, Михаил Старчак, Александр Наумов (II)) [2017, комедия, HDTVRip 720p]

35 | 48

3.55 ГБ

В этой теме нет новых непрочитанных сообщений. Остров (2 сезон 1-9 серии из 24) (Артем Насыбулин, Михаил Старчак, Александр Наумов (II)) [2017, комедия, HDTVRip 720p]

14 | 17

5.31 ГБ

В этой теме нет новых непрочитанных сообщений. Остров (2 сезон 1-5 серии из 24) (Артем Насыбулин, Михаил Старчак, Александр Наумов (II)) [2017, комедия, HDTVRip 720p]

119 | 232

2.98 ГБ

В этой теме нет новых непрочитанных сообщений. Остров (2 сезон 1-6 серии из 24) (Артем Насыбулин, Михаил Старчак, Александр Наумов (II)) [2017, комедия, HDTVRip]

90 | 139

1.09 ГБ

В этой теме нет новых непрочитанных сообщений. Остров (2 сезон 1-6 серии из 24) (Артем Насыбулин, Михаил Старчак, Александр Наумов (II)) [2017, комедия, HDTVRip-AVC]

34 | 31

2.1 ГБ

В этой теме нет новых непрочитанных сообщений. Остров (2 сезон 1-5 серии из 24) (Артем Насыбулин, Михаил Старчак, Александр Наумов (II)) [2017, комедия, HDTVRip-AVC]

27 | 19

1.76 ГБ




Вы не можете начинать темы
Вы не можете отвечать на сообщения
Вы не можете редактировать свои сообщения
Вы не можете удалять свои сообщения
Вы не можете добавлять вложения

Перейти:  
Для Мосгорсуда, Роскомнадзора и рекламодателей: mosgorsud-torrent[собачка]yandex.ru
 Вход
ppkBB3cker v.2 © 2008-2014 @ PPK
[ Time : 0.064s | 20 Queries | GZIP : Off ]

cron