img image001 image001 image001 image001 image001 image001 image001 image001 image001 image001 image001 image001 image001 image001 image001
Planets Sun Sun Sun
Статистика раздачи
Автор: Снежана | Размер: 43.53 ГБ | Добавлен: 14 фев 2018
Раздают: 3    Качают: 15
Скачать торрент
Скачать торрент
Описание торрента

СообщениеДобавлено: 14 фев 2018 

Улицa (1-75 серии)

Перевод: Не требуется, cубтитры: отсутствуют
Формат: HDTVRip 720p, MKV, H.264, AC3
Страна: Россия
Режиссер: Жанна Кадникова, Николай Бурлак, Михаил Соловьёв (II)
Жанр: драма, комедия, мелодрама, триллер
Всего серий: ???
Продолжительность: 75 x ~ 00:27:00
Год выпуска: 2017

В ролях: Егор Клинаев, Лёля Баранова, Владимир Хацкевич, Екатерина Седик, Павел Савинков, Сергей Змичеревский, Артемий Падалка, Марина Богатова, Ксения Жданова, Марта Дромашко, Александр Терехов, Софья Реснянская, Анна Клинская, Василиса Немцова, Кристина Александрова, Евгения Туркова, Евгения Короткевич, Пётр Романов, Никита Лобанов, Евгений Шевченко (II), Артур Бичакиан, Джамболат Сланов, Светлана Саягова, Алёна Котова, Ольга Балль, Максим Михалёв, Валерий Романов, Марина Антонова, Евдокия Лаврухина, Дарья Баскакова-Левина, Даниил Добринский, Татьяна Митиенко, Кирилл Анохин, Юрий Николаенко, Сергей Долготович, Дарья Макарова, Татьяна Ивановская, Руслан Сабиров (II), Алёна Ан, Кирилл Снегирёв, Александр Обласов, Виктор Татаринов, Екатерина Хомчук, Денис Фомин, Никита Подскопный, Полина Канева, Татьяна Дорофеева, Анна Махлина, Максим Калужских, Дамир Янов, Пелагея Невзорова, Кристина Кузьмина

Описание: «Улица» – это история жителей одной из улиц спального района большого города. Школьники и студенты, домохозяйки и продавцы, олигархи и простые рабочие — здесь встретятся более 30 персонажей разного возраста и социального статуса, у каждого из них своя история. В большой Вселенной «Улицы» нет главных и второстепенных героев, здесь есть бурная жизнь с ее радостями, горестями, казусами и косяками, страхами, любовными переживаниями и трагедиями. Это история про всех нас и наших соседей.

Рейтинг и доп. информация:


Видео: 1280х720 (16:9), 25 fps, AVC MPEG-4 (x264), ~ 3500 kbps , 0.152 bit/pixel
Аудио: 48 kHz, АС3, 2/0 (L,R), ~192.00 kbps avg
Внимание! Раздача ведётся путём добавления новых серий. При каждом добавлении создаётся новый торрент.
Чтобы начать докачку новой серии, пользователям необходимо сделать следующее:
1. Остановить скачивание.
2. Удалить старый торрент у себя из клиента (старые серии удалять не надо).
3. Скачать новый торрент и запустить его у себя в клиенте вместо старого, при этом указать клиенту путь в старую папку куда и должно происходить скачивание новых серий. Ваш клиент при этом должен произвести хеширование (проверку) старой папки и будет докачивать только те серии, которых у вас ещё нет. Старые серии при этом не удаляются, а продолжают раздаваться! Eсли вы уже удалили старые серии, то предотвратить повторную закачку старых серий можно, отжав галочку в соответствующих местах при запуске нового торрента.


Общее
Уникальный идентификатор : 231414770924591580354097450307934161972 (0xAE18DD1AC4F63DF2939FDFE055730C34)
Полное имя : C:\Users\Ulica.2017.HDTVRip.(720p).\Ulica.(01.seriya).2017.HDTVRip.(720p).mkv
Формат : Matroska
Версия формата : Version 4 / Version 2
Размер файла : 719 Мбайт
Продолжительность : 27 м. 12 с.
Общий поток : 3693 Кбит/сек
Дата кодирования : UTC 2017-10-02 19:58:28
Программа кодирования : mkvmerge v7.8.0 ('River Man') 32bit built on Apr 3 2015 12:11:22
Библиотека кодирования : libebml v1.3.1 + libmatroska v1.4.2

Видео
Идентификатор : 1
Формат : AVC
Формат/Информация : Advanced Video Codec
Профиль формата :
Настройки формата : CABAC / 9 Ref Frames
Параметр CABAC формата : Да
Параметр RefFrames формата : 9 кадров
Идентификатор кодека : V_MPEG4/ISO/AVC
Продолжительность : 27 м. 12 с.
Битрейт : 3500 Кбит/сек
Ширина : 1280 пикселей
Высота : 720 пикселей
Соотношение сторон : 16:9
Режим частоты кадров : Постоянный
Частота кадров : 25,000 кадров/сек
Цветовое пространство : YUV
Субдискретизация насыщенности : 4:2:0
Битовая глубина : 8 бит
Тип развёртки : Прогрессивная
Бит/(Пиксели*Кадры) : 0.152
Размер потока : 667 Мбайт (93%)
Библиотека кодирования : x264 core 146 r2538 121396c
Настройки программы : cabac=1 / ref=9 / deblock=1:-3:-3 / analyse=0x3:0x113 / me=umh / subme=11 / psy=1 / psy_rd=1.00:0.20 / mixed_ref=1 / me_range=32 / chroma_me=1 / trellis=2 / 8x8dct=1 / cqm=0 / deadzone=21,11 / fast_pskip=1 / chroma_qp_offset=-3 / threads=6 / lookahead_threads=1 / sliced_threads=0 / nr=0 / decimate=0 / interlaced=0 / bluray_compat=0 / constrained_intra=0 / bframes=11 / b_pyramid=2 / b_adapt=2 / b_bias=0 / direct=3 / weightb=1 / open_gop=0 / weightp=2 / keyint=250 / keyint_min=25 / scenecut=40 / intra_refresh=0 / rc_lookahead=60 / rc=2pass / mbtree=1 / bitrate=3500 / ratetol=1.0 / qcomp=0.60 / qpmin=0 / qpmax=69 / qpstep=4 / cplxblur=20.0 / qblur=0.5 / vbv_maxrate=14000 / vbv_bufsize=14000 / nal_hrd=none / filler=0 / ip_ratio=1.40 / aq=3:1.00
Default : Нет
Forced : Нет
Цветовой диапазон : Limited
Основные цвета : BT.709
Характеристики трансфера : BT.709
Коэффициенты матрицы : BT.709

Аудио
Идентификатор : 2
Формат : AC-3
Формат/Информация : Audio Coding 3
Параметр Endianness формата : Big
Идентификатор кодека : A_AC3
Продолжительность : 27 м. 12 с.
Вид битрейта : Постоянный
Битрейт : 192 Кбит/сек
Каналы : 2 канала
Расположение каналов : Front: L R
Частота : 48,0 КГц
Частота кадров : 31,250 кадров/сек (1536 SPF)
Битовая глубина : 16 бит
Метод сжатия : С потерями
Размер потока : 37,4 Мбайт (5%)
Язык : Russian
ServiceKind/String : Complete Main
Default : Да
Forced : Да











   Похожие торренты   Торрент   Размер 
В этой теме нет новых непрочитанных сообщений. Улицa (1-73 серии) (Жанна Кадникова, Николай Бурлак, Михаил Соловьёв (II)) [2017, драма, комедия, мелодрама, триллер, HDTVRip 720p]

4 | 29

42.42 ГБ

В этой теме нет новых непрочитанных сообщений. Улицa (1-77 серии) (Жанна Кадникова, Николай Бурлак, Михаил Соловьёв (II)) [2017, драма, комедия, мелодрама, триллер, HDTVRip 720p]

3 | 29

44.69 ГБ

В этой теме нет новых непрочитанных сообщений. Улицa (1-74 серии) (Жанна Кадникова, Николай Бурлак, Михаил Соловьёв (II)) [2017, драма, комедия, мелодрама, триллер, HDTVRip-AVC]

5 | 7

25.01 ГБ

В этой теме нет новых непрочитанных сообщений. Улицa (1-75 серии) (Жанна Кадникова, Николай Бурлак, Михаил Соловьёв (II)) [2017, драма, комедия, мелодрама, триллер, HDTVRip-AVC]

8 | 66

25.31 ГБ

В этой теме нет новых непрочитанных сообщений. Улицa (1-77 серии) (Жанна Кадникова, Николай Бурлак, Михаил Соловьёв (II)) [2017, драма, комедия, мелодрама, триллер, HDTVRip-AVC]

4 | 14

25.89 ГБ

В этой теме нет новых непрочитанных сообщений. Улицa (1-73 серии) (Жанна Кадникова, Николай Бурлак, Михаил Соловьёв (II)) [2017, драма, комедия, мелодрама, триллер, HDTVRip-AVC]

6 | 6

24.72 ГБ

В этой теме нет новых непрочитанных сообщений. Волчонок, 5 сезон 1-14 серии из 20 / Teen Wolf [ColdFilm] (Тим Эндрю, Расселл Малкэй, Тоби Уилкинс) [2015, ужасы, триллер, драма, мелодрама, комедия, HDTVRip, L2]

89 | 334

4.88 ГБ




Вы не можете начинать темы
Вы не можете отвечать на сообщения
Вы не можете редактировать свои сообщения
Вы не можете удалять свои сообщения
Вы не можете добавлять вложения

Перейти:  
Для Мосгорсуда, Роскомнадзора и рекламодателей: mosgorsud-torrent[собачка]yandex.ru
 Вход
ppkBB3cker v.2 © 2008-2014 @ PPK
[ Time : 0.108s | 18 Queries | GZIP : Off ]

cron