img image001 image001 image001 image001 image001 image001 image001 image001 image001 image001 image001 image001 image001 image001 image001

Planets Sun Sun Sun
Статистика раздачи
Автор: Nickolas3434 | Размер: 2.29 ГБ | Добавлен: 15 дек 2017
Раздают: 0    Качают: 0
Скачать торрент
Скачать торрент
Описание торрента

СообщениеДобавлено: 15 дек 2017 

Проект «Наци»: Дьявольский замысел / Project Nazi: Blueprints of Evil
Страна: Великобритания
Производство: Midnight Oil Pictures
Год выпуска: 2017
Жанр: документальный, военный, история
Продолжительность: х ~00:52:00
Режиссер: Билл Томас
В ролях: Майк Фордхэм, Анке Люддек, Алекс Сиборн
Описание: Идея величия и процветания новой Германии стоила более 50 миллионов жизней и попытки уничтожить целый мир. Сериал предлагает окунуться в дьявольский план самого страшного режима в истории. Как немцев соблазнила идеология нацизма с помощью выдающихся планов, отличной подготовки и коварной пропаганды...

Перевод: Профессиональный (одноголосый, закадровый)
Субтитры: нет

Качество: HDTVRip
Формат: AVI
Видео кодек: XviD
Аудио кодек: AС3
Видео: 720x400 (16:9), 25.000 fps, XviD build 73 ~1 900 kbps avg
Аудио: 48.0 kHz, AC3 Dolby Digital, 2/0 (L,R) ch, ~192 kbps | RUS
Дата премьеры (мир): 9 августа 2017
Релиз от: alf62
General
Формат : AVI
Формат/Информация : Audio Video Interleave
Размер файла : 785 Мбайт
Продолжительность : 52 м.
Общий поток : 2102 Кбит/сек
Программа кодирования : VirtualDubMod 1.5.10.3 | (build 2550/release)
Библиотека кодирования : VirtualDubMod build 2550/release
Видео
Идентификатор : 0
Формат : MPEG-4 Visual
Профиль формата : Advanced [email protected]
Параметр BVOP формата : 2
Параметр QPel формата : Нет
Параметр GMC формата : Без точки перехода
Параметр матрицы формата : Default (MPEG)
Идентификатор кодека : XVID
Идентификатор кодека/Подсказка : XviD
Продолжительность : 52 м.
Битрейт : 1900 Кбит/сек
Ширина : 720 пикселей
Высота : 400 пикселей
Соотношение сторон : 16:9
Частота кадров : 25,000 кадров/сек
Цветовое пространство : YUV
Субдискретизация насыщенности : 4:2:0
Битовая глубина : 8 бит
Тип развёртки : Прогрессивная
Метод сжатия : С потерями
Бит/(Пиксели*Кадры) : 0.264
Размер потока : 710 Мбайт (90%)
Библиотека кодирования : XviD 73
Аудио
Идентификатор : 1
Формат : AC-3
Формат/Информация : Audio Coding 3
Расширение режима : CM (complete main)
Параметр Endianness формата : Big
Идентификатор кодека : 2000
Продолжительность : 52 м.
Вид битрейта : Постоянный
Битрейт : 192 Кбит/сек
Каналы : 2 канала
Расположение каналов : Front: L R
Частота : 48,0 КГц
Битовая глубина : 16 бит
Метод сжатия : С потерями
Размер потока : 71,7 Мбайт (9%)
Выравнивание : Разделение по промежуткам
Продолжительность промежутка : 40 мс. (1,00 видеокадр)
Время предзагрузки промежутка : 500 мс.



   Похожие торренты   Торрент   Размер 
В этой теме нет новых непрочитанных сообщений. Viasat History. Проект «Наци»: Дьявольский замысел / Project Nazi: Blueprints of Evil [01-06 из 06] (2017) HDTVRip | Р1

0 | 0

4.57 ГБ

В этой теме нет новых непрочитанных сообщений. Viasat History. Проект «Наци»: Дьявольский замысел / Project Nazi: Blueprints of Evil [01-04 из 06] (2017) HDTVRip | Р1

0 | 0

3.05 ГБ

В этой теме нет новых непрочитанных сообщений. Viasat History. Проект «Наци»: Дьявольский замысел / Project Nazi: Blueprints of Evil [01-02 из 06] (2017) HDTVRip | Р1

0 | 0

1.53 ГБ

В этой теме нет новых непрочитанных сообщений. Viasat History. Проект «Наци»: Дьявольский замысел / Project Nazi: Blueprints of Evil [01-03 из 06] (2017) HDTVRip 720р | Р1

0 | 0

4.23 ГБ

В этой теме нет новых непрочитанных сообщений. Viasat History. Проект «Наци»: Дьявольский замысел / Project Nazi: Blueprints of Evil [01-04 из 06] (2017) HDTVRip 720р | Р1

9 | 1

5.64 ГБ

В этой теме нет новых непрочитанных сообщений. Viasat History. Проект «Наци»: Дьявольский замысел / Project Nazi: Blueprints of Evil [01-06 из 06] (2017) HDTVRip 720р | Р1

0 | 0

8.44 ГБ

В этой теме нет новых непрочитанных сообщений. Viasat History. Проект «Наци»: Дьявольский замысел / Project Nazi: Blueprints of Evil [01-02 из 06] (2017) HDTVRip 720р | Р1

0 | 0

2.82 ГБ




Вы не можете начинать темы
Вы не можете отвечать на сообщения
Вы не можете редактировать свои сообщения
Вы не можете удалять свои сообщения
Вы не можете добавлять вложения

Перейти:  
Для Мосгорсуда, Роскомнадзора и рекламодателей: mosgorsud-torrent[собачка]yandex.ru
 Вход
ppkBB3cker v.2 © 2008-2014 @ PPK
[ Time : 0.156s | 17 Queries | GZIP : Off ]

cron