img image001 image001 image001 image001 image001 image001 image001 image001 image001 image001 image001 image001 image001 image001 image001

Planets Sun Sun Sun
Статистика раздачи
Автор: Nickolas3434 | Размер: 1.44 ГБ | Добавлен: 06 янв 2018
Раздают: 20    Качают: 0
Скачать торрент
Скачать торрент
Описание торрента

СообщениеДобавлено: 06 янв 2018 

Информация о фильме
Название: Остров сокровищ Робинзона Крузо
Оригинальное название: Robinson Crusoe's Treasure Island
Год выпуска: 2011
Жанр: Документальный, тайны, реставрация, путешествия
Выпущено: Германия, Caligari Film GmbH Munich, ZDF Enterprises, ARTE
Режиссер: Юрген Штумпхаус
О фильме: Изола Фернандес. Остров на краю света. Тайна испанской короны. Английские корсары нашли его и использовали как базу для рейдов на испанские колонии. Говорят, здесь спрятано огромное сокровище, якобы зарытое в 1715 году испанским мореплавателем Хуаном Эстебеном Убиллом. И здесь же боролся за жизнь самый знаменитый изгой в мире. Нет, не Робинзон Крузо, хотя остров носит его имя. Правдивы ли все эти истории? Авторы этого удивительного фильма попытаются разгадать старую тайну острова.

Качество: WEB-DLRip (AVC)
Видео: MPEG-4 AVC, 3481 Kбит/с, 1024x576, 25 кадр/с
Аудио: Русский (AC3, 2 ch, 192 Кбит/с), английский (AC3, 2 ch, 224 Кбит/с)
Размер: 1.44 ГБ
Продолжительность: 00:52:45
Перевод: Профессиональный одноголосый
Субтитры: Английские
Озвучивание - Профессиональное одноголосое (СВ-Дубль)
x264 [info]: frame I:582 Avg QP:17.19 size: 96708
x264 [info]: frame P:20867 Avg QP:20.14 size: 34099
x264 [info]: frame B:57684 Avg QP:21.47 size: 10564
x264 [info]: consecutive B-frames: 4.2% 5.8% 10.6% 35.9% 11.6% 27.0% 3.2% 1.0% 0.3% 0.2% 0.2%
x264 [info]: mb I I16..4: 4.2% 74.5% 21.2%
x264 [info]: mb P I16..4: 1.2% 17.8% 1.6% P16..4: 30.0% 31.2% 13.2% 2.2% 0.3% skip: 2.5%
x264 [info]: mb B I16..4: 0.2% 1.9% 0.2% B16..8: 29.0% 21.5% 3.9% direct:10.3% skip:33.1% L0:34.1% L1:42.6% BI:23.3%
x264 [info]: 8x8 transform intra:84.7% inter:56.7%
x264 [info]: direct mvs spatial:96.5% temporal:3.5%
x264 [info]: coded y,uvDC,uvAC intra: 86.7% 85.1% 64.2% inter: 32.1% 33.9% 15.1%
x264 [info]: i16 v,h,dc,p: 23% 16% 6% 55%
x264 [info]: i8 v,h,dc,ddl,ddr,vr,hd,vl,hu: 8% 12% 9% 8% 11% 11% 13% 11% 16%
x264 [info]: i4 v,h,dc,ddl,ddr,vr,hd,vl,hu: 11% 13% 9% 7% 13% 11% 14% 9% 14%
x264 [info]: i8c dc,h,v,p: 42% 27% 16% 15%
x264 [info]: Weighted P-Frames: Y:7.0% UV:4.3%
x264 [info]: ref P L0: 51.9% 14.2% 18.3% 4.1% 3.7% 2.1% 2.2% 1.1% 1.2% 1.0% 0.2% 0.0%
x264 [info]: ref B L0: 84.7% 8.8% 2.7% 1.3% 0.9% 0.7% 0.5% 0.3% 0.2%
x264 [info]: ref B L1: 96.5% 3.5%
x264 [info]: kb/s:3480.78

Общее
Уникальный идентификатор : 200614945867602283927339875309843668549 (0x96ED087CC487BEC8A7473A57F7245E45)
Полное имя : D:ЗагрузкиRobinson.Crusoes.Treasure.Island.(2011).x264.WEB-DLRip.(AVC).OlLanDGroup.mkv
Формат : Matroska
Версия формата : Version 4 / Version 2
Размер файла : 1,44 Гбайт
Продолжительность : 52 м.
Общий поток : 3900 Кбит/сек
Название фильма : Остров сокровищ Робинзона Крузо.2011.Rip by: ollan
Дата кодирования : UTC 2018-01-04 15:59:07
Программа кодирования : mkvmerge v6.5.0 ('Isn't she lovely') built on Oct 20 2013 12:50:05
Библиотека кодирования : libebml v1.3.0 + libmatroska v1.4.1
Attachements : Cover - Robinson.Crusoe's.Treasure.Island.png
Видео
Идентификатор : 1
Формат : AVC
Формат/Информация : Advanced Video Codec
Профиль формата : [email protected]
Параметр CABAC формата : Да
Параметр ReFrames формата : 10 кадров
Идентификатор кодека : V_MPEG4/ISO/AVC
Продолжительность : 52 м.
Битрейт : 3481 Кбит/сек
Ширина : 1024 пикселя
Высота : 576 пикселей
Соотношение сторон : 16:9
Режим частоты кадров : Постоянный
Частота кадров : 25,000 кадров/сек
Цветовое пространство : YUV
Субдискретизация насыщенности : 4:2:0
Битовая глубина : 8 бит
Тип развёртки : Прогрессивная
Бит/(Пиксели*Кадры) : 0.236
Размер потока : 1,26 Гбайт (87%)
Библиотека кодирования : x264 core 146 r2538 121396c
Настройки программы : cabac=1 / ref=10 / deblock=1:-2:-3 / analyse=0x3:0x133 / me=umh / subme=11 / psy=1 / psy_rd=0.90:0.10 / mixed_ref=1 / me_range=64 / chroma_me=1 / trellis=2 / 8x8dct=1 / cqm=0 / deadzone=21,11 / fast_pskip=0 / chroma_qp_offset=-3 / threads=12 / lookahead_threads=3 / sliced_threads=0 / nr=0 / decimate=0 / interlaced=0 / bluray_compat=0 / constrained_intra=0 / bframes=10 / b_pyramid=2 / b_adapt=2 / b_bias=0 / direct=3 / weightb=1 / open_gop=0 / weightp=2 / keyint=250 / keyint_min=25 / scenecut=40 / intra_refresh=0 / rc_lookahead=40 / rc=2pass / mbtree=0 / bitrate=3481 / ratetol=1.0 / qcomp=0.60 / qpmin=0 / qpmax=69 / qpstep=4 / cplxblur=20.0 / qblur=0.5 / vbv_maxrate=50000 / vbv_bufsize=62500 / nal_hrd=none / filler=0 / ip_ratio=1.40 / pb_ratio=1.30 / aq=1:1.00
Язык : English
Default : Да
Forced : Нет
Аудио #1
Идентификатор : 2
Формат : AC-3
Формат/Информация : Audio Coding 3
Расширение режима : CM (complete main)
Параметр Endianness формата : Big
Идентификатор кодека : A_AC3
Продолжительность : 52 м.
Вид битрейта : Постоянный
Битрейт : 192 Кбит/сек
Каналы : 2 канала
Расположение каналов : Front: L R
Частота : 48,0 КГц
Частота кадров : 31,250 кадров/сек (1536 spf)
Метод сжатия : С потерями
Размер потока : 72,4 Мбайт (5%)
Заголовок : Профессиональный одноголосый (СВ-Дубль)
Язык : Russian
Default : Да
Forced : Нет
Аудио #2
Идентификатор : 3
Формат : AC-3
Формат/Информация : Audio Coding 3
Расширение режима : CM (complete main)
Параметр Endianness формата : Big
Идентификатор кодека : A_AC3
Продолжительность : 52 м.
Вид битрейта : Постоянный
Битрейт : 224 Кбит/сек
Каналы : 2 канала
Расположение каналов : Front: L R
Частота : 48,0 КГц
Частота кадров : 31,250 кадров/сек (1536 spf)
Метод сжатия : С потерями
Размер потока : 84,5 Мбайт (6%)
Язык : English
Default : Нет
Forced : Нет
Текст
Идентификатор : 4
Формат : UTF-8
Идентификатор кодека : S_TEXT/UTF8
Идентификатор кодека/Информация : UTF-8 Plain Text
Заголовок : Full
Язык : English
Default : Нет
Forced : Нет





Релиз от: Rip by:



   Похожие торренты   Торрент   Размер 
В этой теме нет новых непрочитанных сообщений. Приключения Робинзона Крузо / Adventures Of Robinson Crusoe (2009) PC

26 | 4

87.95 МБ

В этой теме нет новых непрочитанных сообщений. Настоящая история Робинзона Крузо / Robinson Crusoe: The true story (2003) TVRip

0 | 8

528.09 МБ

В этой теме нет новых непрочитанных сообщений. Приключения Робинзона Крузо. Проклятие пирата / Robinson Crusoe 2: The Cursed Pirates (2010) PC

111 | 3

178.59 МБ

В этой теме нет новых непрочитанных сообщений. Робинзон Крузо: Очень обитаемый остров / Robinson Crusoe (2016) WEB-DLRip | iTunes

11761 | 217

1.37 ГБ

В этой теме нет новых непрочитанных сообщений. Робинзон Крузо: Очень обитаемый остров / Robinson Crusoe (2016) WEB-DLRip-AVC | iTunes

127 | 2

1.82 ГБ

В этой теме нет новых непрочитанных сообщений. Робинзон Крузо: Очень обитаемый остров / Robinson Crusoe (2016) WEB-DLRip-AVC | iTunes

34 | 1

680.48 МБ

В этой теме нет новых непрочитанных сообщений. Робинзон Крузо: Очень обитаемый остров / Robinson Crusoe (2016) WEB-DLRip от MegaPeer | iTunes

84 | 6

744.56 МБ




Вы не можете начинать темы
Вы не можете отвечать на сообщения
Вы не можете редактировать свои сообщения
Вы не можете удалять свои сообщения
Вы не можете добавлять вложения

Перейти:  
Для Мосгорсуда, Роскомнадзора и рекламодателей: mosgorsud-torrent[собачка]yandex.ru
 Вход
ppkBB3cker v.2 © 2008-2014 @ PPK
[ Time : 0.060s | 17 Queries | GZIP : Off ]

cron