img image001 image001 image001 image001 image001 image001 image001 image001 image001 image001 image001 image001 image001 image001 image001
Planets Sun Sun Sun
Статистика раздачи
Автор: PriZraK | Размер: 6.7 ГБ | Добавлен: 12 фев 2018
Раздают: 0    Качают: 4
Скачать торрент
Скачать торрент
Описание торрента

СообщениеДобавлено: 12 фев 2018 

Большая история (1 сезон, 1-16 серии из 16) / Big History


Перевод: Профессиональный (одноголосый), cубтитры: отсутствуют
Формат: DVB, MPEG-TS, H.264, MP2
Страна: США
Режиссер: History Channel HD
Жанр: документальный, история
Продолжительность: 16 x ~ 00:20:00
Год выпуска: 2013

В ролях: Брайан Крэнстон, Jonathan Markley, Тревор Валле, Emmanuel Afuwape, Альберто Джоррин, Марк Йеллин, Ардешир Радпур, Аделе Рене, Sekou M. Sirleaf, Николь Старретт

Описание: Двадцать лет назад группа учителей-новаторов придумала и воплотила в жизнь потрясающий проект: использовать точные науки для преподавания истории и использовать историю для лучшего понимания точных наук. В каждой серии «Большой истории» рассказывается о том, как научные открытия в области биологии, астрономии, геологии, химии и других дисциплин влияли на исторические события. Программа выходит в 2014 году. Зрителей ждет немало неожиданных и волнующих открытий. Например, знаете ли вы о том, что радиоволны, передающие сигнал вашего мобильного телефона, связаны с событиями на Титанике?

Рейтинг на:


Видео: 720х[email protected] (16:9), 25,000 fps, AVC (х264), [email protected], 2591 Кбит/сек, ~ 0.250 bit/pixel
Аудио: 48 kHz, MPEG Layer 2, 2 ch, ~192.00 kbps avg
(тех. данные серий идентичны)

Общее
Идентификатор : 16 (0x10)
Полное имя : 02_BIG_Hystory.ts
Формат : MPEG-TS
Размер файла : 429 Мбайт
Продолжительность : 20 м. 28 с.
Режим общего битрейта : Переменный
Общий поток : 2930 Кбит/сек

Видео
Идентификатор : 1091 (0x443)
Идентификатор меню : 1090 (0x442)
Формат : AVC
Формат/Информация : Advanced Video Codec
Профиль формата : [email protected]
Параметр CABAC формата : Да
Параметр ReFrames формата : 4 кадра
Структура изображения : Frame
Идентификатор кодека : 27
Продолжительность : 20 м. 28 с.
Битрейт : 2591 Кбит/сек
Ширина : 720 пикселей
Высота : 576 пикселей
Соотношение сторон : 16:9
Частота кадров : 25,000 кадров/сек
Стандарт вещания : PAL
Цветовое пространство : YUV
Субдискретизация насыщенности : 4:2:0
Битовая глубина : 8 бит
Тип развёртки : Чересстрочная
Метод сохранения типа развёртки : Чередующиеся поля
Порядок развёртки : Верхнее поле первое
Бит/(Пиксели*Кадры) : 0.250
Размер потока : 379 Мбайт (88%)
Цветовой диапазон : Limited
Основные цвета : BT.601 PAL
Характеристики трансфера : BT.470 System B, BT.470 System G
Коэффициенты матрицы : BT.601

Аудио
Идентификатор : 1092 (0x444)
Идентификатор меню : 1090 (0x442)
Формат : MPEG Audio
Версия формата : Version 1
Профиль формата : Layer 2
Идентификатор кодека : 4
Продолжительность : 20 м. 28 с.
Вид битрейта : Постоянный
Битрейт : 192 Кбит/сек
Каналы : 2 канала
Частота : 48,0 КГц
Метод сжатия : С потерями
Задержка видео : 135 мс.
Размер потока : 28,1 Мбайт (7%)
Язык : std
Язык, дополнительно : Clean effects



01. Сила соли / The Superpower of Salt
02. Золотая лихорадка / Gold Fever
03. Революция лошадиных сил / Horse Power Revolution
04. Ниже нуля / Below Zero
05. Суперпостройки / Megastructures
06. Мир оружия / World of Weapons
07. Восхождение плотоядных / Rise of the Carnivores
08. Горные фабрики / Mountain Machines
09. Кофеин / Brain Boost
10. Преодолевая гравитацию / Defeating Gravity
11. Портативная машина времени / Pocket Time Machine
12. Смертельно опасные метеоры / Deadly Meteors
13. Расшифровка / Decoded
14. Серебряная сверхновая / Silver Supernova
15. Солнце / The Sun
16. Вода / H2O











   Похожие торренты   Торрент   Размер 
В этой теме нет новых непрочитанных сообщений. Охотники за оружием (2 сезон, 1-4 серии из 6) / Viasat History. The Weapon Hunter (Viasat History) [2016, документальный, вооружение, история, HDTVRip] VO

2 | 4

2.59 ГБ

В этой теме нет новых непрочитанных сообщений. Охотники за оружием (2 сезон, 1-5 серии из 6) / Viasat History. The Weapon Hunter (Viasat History) [2016, документальный, вооружение, история, HDTVRip] VO

4 | 2

3.24 ГБ

В этой теме нет новых непрочитанных сообщений. History Channel: Большая история / Big History [01-17 из 17] (2013) HDTVRip 720p

64 | 34

14.69 ГБ

В этой теме нет новых непрочитанных сообщений. Охотники за оружием (2 сезон, 1-4 серии из 6) / Viasat History. The Weapon Hunter (Олег Колин, Валерий Белов) [2016, документальный, вооружение, история, HDTVRip 720p] VO

0 | 3

4.56 ГБ

В этой теме нет новых непрочитанных сообщений. Охотники за оружием (2 сезон, 1-5 серии из 6) / Viasat History. The Weapon Hunter (Олег Колин, Валерий Белов) [2016, документальный, вооружение, история, HDTVRip 720p] VO

2 | 0

5.7 ГБ

В этой теме нет новых непрочитанных сообщений. Крутые тачки в Новом Орлеане (1 cезон, 1-14 серии из 14) / History. Big Easy Motors (History Channel HD) [2016, документальный, HDTV 1080i] VO / Blu-Ray / BDRip / HDTV

0 | 2

21.7 ГБ

В этой теме нет новых непрочитанных сообщений. Проклятие острова Оук (4 сезон, 1-17 серии из 18) / History Channel. The Curse of Oak Island (Кевин Барнс) [2016, документальный, телепередача, реалити-шоу, HDTV 1080i] DVO

11 | 21

50.54 ГБ




Вы не можете начинать темы
Вы не можете отвечать на сообщения
Вы не можете редактировать свои сообщения
Вы не можете удалять свои сообщения
Вы не можете добавлять вложения

Перейти:  
Для Мосгорсуда, Роскомнадзора и рекламодателей: mosgorsud-torrent[собачка]yandex.ru
 Вход
ppkBB3cker v.2 © 2008-2014 @ PPK
[ Time : 0.036s | 18 Queries | GZIP : Off ]

cron