img image001 image001 image001 image001 image001 image001 image001 image001 image001 image001 image001 image001 image001 image001 image001
Planets Sun Sun Sun
Статистика раздачи
Автор: PriZraK | Размер: 8.73 ГБ | Добавлен: 12 фев 2018
Раздают: 9    Качают: 0
Скачать торрент
Скачать торрент
Описание торрента

СообщениеДобавлено: 12 фев 2018 

Сверхчувства животных (Уникальные способности животных) / (1-3 серии из 3) / Animal Super Senses

Перевод: Профессиональный (одноголосый), cубтитры: отсутствуют
Формат: DVB, MPEG-TS, AVC/MPEG4, MP2/MP2
Страна: Великобритания, British Broadcasting Corporation (BBC)
Режиссер: Кирстин Дэвидсон
Жанр: документальный, научно-популярный, фауна
Продолжительность: 3 x ~00:50:20
Год выпуска: 2014

Описание: Наши органы чувств - необыкновенны. У нас отличное зрение, тонкий слух, мы можем уловить слабый аромат в дуновении ветра. Однако это далеко не предел. Представьте, что можно видеть при помощи звука, слышать грозу за сотни километров, воспринимать мир замедленно или уметь разглядеть малейшие детали. Двое ученых - физик др. Хелен Черски и биолог Патрик Арии отправятся в самые дикие места Земли исследуя уникальные способности животных. Они выяснят как животные воспринимают цвет, запахи и звуки и постараются увидеть мир таким, каким он представляется животным, чьи способности превосходят человеческие. С их помощью мы увидим как животные адаптируются и выживают благодаря дарам природы. Откройте мир через чувства животных. Это НЕЧЕЛОВЕЧЕСКИЙ МИР!



Видео: 1280x720 (16:9), 50 fps, AVC MPEG-4 ([email protected]), ~7545 kbps avg, 0.164 bit/pixel
Аудио #1: Русский 48 kHz, MPEG Layer 2, 2 ch, ~128.00 kbps avg
Аудио #2: Английский 48 kHz, MPEG Layer 2, 2 ch, ~128.00 kbps avg (Оригинал)

Доп. информация: переведено и озвучено на студии "SDI Media" по заказу ТПО Red Media, перевод Натальи Сергеевой, текст читает Владислав Букин

Автор рипа и постера: skorpionN


Код:
Код:
Общее
Идентификатор : 1 (0x1)
Полное имя : D:\BBC_Animal Super Senses_720p\01_Sight.ts
Формат : MPEG-TS
Размер файла : 2,89 Гбайт
Продолжительность : 50 м.
Режим общего битрейта : Переменный
Общий поток : 8209 Кбит/сек

Видео
Идентификатор : 4113 (0x1011)
Идентификатор меню : 1 (0x1)
Формат : AVC
Формат/Информация : Advanced Video Codec
Профиль формата : [email protected]
Параметр CABAC формата : Да
Параметр ReFrames формата : 5 кадров
Идентификатор кодека : 27
Продолжительность : 50 м.
Вид битрейта : Переменный
Битрейт : 7545 Кбит/сек
Максимальный битрейт : 40,0 Мбит/сек
Ширина : 1280 пикселей
Высота : 720 пикселей
Соотношение сторон : 16:9
Частота кадров : 50,000 кадров/сек
Стандарт вещания : Component
Цветовое пространство : YUV
Субдискретизация насыщенности : 4:2:0
Битовая глубина : 8 бит
Тип развёртки : Прогрессивная
Бит/(Пиксели*Кадры) : 0.164
Размер потока : 2,66 Гбайт (92%)
Цветовой диапазон : Limited
Основные цвета : BT.709
Характеристики трансфера : BT.709
Коэффициенты матрицы : BT.709

Аудио #1
Идентификатор : 4352 (0x1100)
Идентификатор меню : 1 (0x1)
Формат : MPEG Audio
Версия формата : Version 1
Профиль формата : Layer 2
Идентификатор кодека : 3
Продолжительность : 50 м.
Вид битрейта : Постоянный
Битрейт : 128 Кбит/сек
Каналы : 2 канала
Частота : 48,0 КГц
Метод сжатия : С потерями
Задержка видео : -80 мс.
Размер потока : 46,1 Мбайт (2%)
Язык : Russian

Аудио #2
Идентификатор : 4353 (0x1101)
Идентификатор меню : 1 (0x1)
Формат : MPEG Audio
Версия формата : Version 1
Профиль формата : Layer 2
Идентификатор кодека : 3
Продолжительность : 50 м.
Вид битрейта : Постоянный
Битрейт : 128 Кбит/сек
Каналы : 2 канала
Частота : 48,0 КГц
Метод сжатия : С потерями
Задержка видео : -80 мс.
Размер потока : 46,1 Мбайт (2%)
Язык : English


01. Зрение / Sight
Отправляйтесь в путь по световому спектру и вы узнаете, как некоторые существа в Арктике видят в ультрафиолете, чтобы замечать хищников на белом снегу.

02. Слух / Sound
Путешествие в мир звука, от самого низкого рокота до высокого визга.

03. Обоняние / Scent
Познакомьтесь с животными, чей нюх превосходит все возможности человека, и узнайте, почему правильно подобранный запах может отпугивать акул.














   Похожие торренты   Торрент   Размер 
В этой теме нет новых непрочитанных сообщений. BBC: Уникальные способности животных / Super Senses: The Secret Power of Animals [01-03 из 03] (2014) SATRip | P1

178 | 59

1.95 ГБ

В этой теме нет новых непрочитанных сообщений. Белый медведь (Юрий Ледин) [1975, документальный, научно-популярный, фауна, TVRip]

0 | 2

750.47 МБ

В этой теме нет новых непрочитанных сообщений. Полярные воды (1 сезон: 1-10 серии из 10) / The Polar Sea (Гордон Пинсент) [2014, документальный, научно-популярный, путешествия, WEB-DLRip 720p] DVO

1 | 1

13.26 ГБ

В этой теме нет новых непрочитанных сообщений. Полярные воды (1 сезон: 1-10 серии из 10) / The Polar Sea (Гордон Пинсент) [2018, документальный, научно-популярный, путешествия, WEB-DLRip] DVO

0 | 0

5.19 ГБ

В этой теме нет новых непрочитанных сообщений. Гималаи с Майклом Пэйлином (1 сезон, 1-6 серии из 6) / BBC. Himalaya with Michael Palin (Роджер Милс, Джон-Пол Дэвидсон) [2004, документальный, приключения, природа, путешествие, флора, фауна, WEBRip 720p] DUB / Blu-Ray / BDRip / HDTV

2 | 0

9.53 ГБ

В этой теме нет новых непрочитанных сообщений. Древние пришельцы (12 сезон, 1-5 серии из 16) / Ancient Aliens (Кевин Барнс, Дэвид Сильвер) [2017, документальный, научно-популярный, уфология, SATRip-AVC] MVO

3 | 0

2.69 ГБ

В этой теме нет новых непрочитанных сообщений. Добыча - человек (1 серия) / I Survived An Animal Attack [2016, документальный, нападения животных, экстрим, HDTVRip] VO

12 | 0

544.41 МБ




Вы не можете начинать темы
Вы не можете отвечать на сообщения
Вы не можете редактировать свои сообщения
Вы не можете удалять свои сообщения
Вы не можете добавлять вложения

Перейти:  
Для Мосгорсуда, Роскомнадзора и рекламодателей: mosgorsud-torrent[собачка]yandex.ru
 Вход
ppkBB3cker v.2 © 2008-2014 @ PPK
[ Time : 0.184s | 18 Queries | GZIP : Off ]

cron