img image001 image001 image001 image001 image001 image001 image001 image001 image001 image001 image001 image001 image001 image001 image001
Planets Sun Sun Sun
Статистика раздачи
Автор: PriZraK | Размер: 876.15 МБ | Добавлен: 12 фев 2018
Раздают: 0    Качают: 0
Скачать торрент
Скачать торрент
Описание торрента

СообщениеДобавлено: 12 фев 2018 

Человек прямоходящий, или Революция каменного топора / Homo Erectus and the Hand Axe Revolution

Перевод: Профессиональный (двухголосый), cубтитры: отсутствуют
Формат: DVB, MPEG-TS, MPEG2, MP2
Страна: Южная Корея, Educational Broadcasting System (EBS)
Режиссер: Чу Док Дам
Жанр: документальный, научно-познавательный
Продолжительность: 00:48:58
Год выпуска: 2012

Описание: Испокон веков на Корейском полуострове существовала разнообразная флора и фауна. 18 миллионов лет назад небом правили птеранодоны. Корея - страна умеренного климата. В древности ее ландшафт был испещрен большими озерами и являлся настоящим раем для динозавров. Царем среди огромных рептилий был тарбозавр (Азиатский тиранозавр). Но этому царству пришел конец. Все погибли в результате падения метеорита или извержения огромного вулкана. Спустя миллионы лет после исчезновения динозавров, когда на Земле правили млекопитающие, на Корейском полуострове появился человек...

Видео: 720х[email protected] (4:3), 25 fps, MPEG Video 2 ([email protected]), ~2184 kbps avg, 0.211 bit/pixel
Аудио: 48 kHz, MPEG Layer 2, 2 ch, ~192.00 kbps avg

Рип и постер от: skorpionN

Код:
Код:
Общее
Идентификатор : 1 (0x1)
Полное имя : C:\Homo Erectus and the Hand Axe Revolution.ts
Формат : MPEG-TS
Размер файла : 876 Мбайт
Продолжительность : 48 м. 57 с.
Режим общего битрейта : Переменный
Общий поток : 2502 Кбит/сек

Видео
Идентификатор : 222 (0xDE)
Идентификатор меню : 1822 (0x71E)
Формат : MPEG Video
Версия формата : Version 2
Профиль формата : [email protected]
Настройки формата : CustomMatrix / BVOP
Параметр BVOP формата : Да
Параметр матрицы формата : Выборочная
Параметр GOP формата : M=3, N=15
Структура изображения : Frame
Идентификатор кодека : 2
Продолжительность : 48 м. 57 с.
Вид битрейта : Переменный
Битрейт : 2184 Кбит/сек
Максимальный битрейт : 9800 Кбит/сек
Ширина : 720 пикселей
Высота : 576 пикселей
Соотношение сторон : 4:3
Частота кадров : 25,000 кадров/сек
Стандарт вещания : PAL
Цветовое пространство : YUV
Субдискретизация насыщенности : 4:2:0
Битовая глубина : 8 бит
Тип развёртки : Чересстрочная
Порядок развёртки : Верхнее поле первое
Метод сжатия : С потерями
Бит/(Пиксели*Кадры) : 0.211
Временной код первого кадра : 00:00:00:00
Оригинал временного кода : Group of pictures header
GOP, открыто/закрыто : Открыто
GOP, открыто/закрыто на первом кадре : Закрыто
Размер потока : 765 Мбайт (87%)

Аудио
Идентификатор : 322 (0x142)
Идентификатор меню : 1822 (0x71E)
Формат : MPEG Audio
Версия формата : Version 1
Профиль формата : Layer 2
Идентификатор кодека : 3
Продолжительность : 48 м. 57 с.
Вид битрейта : Постоянный
Битрейт : 192 Кбит/сек
Каналы : 2 канала
Частота : 48,0 КГц
Частота кадров : 41,667 кадра/сек (1152 SPF)
Метод сжатия : С потерями
Размер потока : 67,2 Мбайт (8%)
Язык : Russian














   Похожие торренты   Торрент   Размер 
В этой теме нет новых непрочитанных сообщений. Потомки (Культурная революция) (ООО ЭсКаСи) [2017, документальный, исторический, научно-познавательный, IPTVRip]

4 | 0

340.44 МБ

В этой теме нет новых непрочитанных сообщений. Вулкан (1-2 серии из 2) / The Volcano [2012, документальный, научно-познавательный, DVB] DVO

0 | 3

1.74 ГБ

В этой теме нет новых непрочитанных сообщений. Легенды Крыма (01-47 выпуски из ?) [2015-2017, документальный, научно-познавательный, DVB]

0 | 4

25.71 ГБ

В этой теме нет новых непрочитанных сообщений. Числа. 5 чисел, которые изменили мир (5 серий из 5) / Numbers. Five Numbers That Changed the World (Чу Док Дам) [2012, документальный, научно-познавательный, история, DVB] VO

6 | 0

4.16 ГБ

В этой теме нет новых непрочитанных сообщений. Потомки (1-5 серии из ?) (ООО ЭсКаСи) [2017, документальный, исторический, научно-познавательный, IPTVRip]

2 | 0

1.7 ГБ

В этой теме нет новых непрочитанных сообщений. Потомки (1-16 серии из ?) (ООО ЭсКаСи) [2017, документальный, исторический, научно-познавательный, IPTVRip]

4 | 2

5.49 ГБ

В этой теме нет новых непрочитанных сообщений. Потомки (1-10 серии из ?) (ООО ЭсКаСи) [2017, документальный, исторический, научно-познавательный, IPTVRip]

1 | 2

3.43 ГБ




Вы не можете начинать темы
Вы не можете отвечать на сообщения
Вы не можете редактировать свои сообщения
Вы не можете удалять свои сообщения
Вы не можете добавлять вложения

Перейти:  
Для Мосгорсуда, Роскомнадзора и рекламодателей: mosgorsud-torrent[собачка]yandex.ru
 Вход
ppkBB3cker v.2 © 2008-2014 @ PPK
[ Time : 0.046s | 18 Queries | GZIP : Off ]

cron