img image001 image001 image001 image001 image001 image001 image001 image001 image001 image001 image001 image001 image001 image001 image001
Planets Sun Sun Sun
Статистика раздачи
Автор: PriZraK | Размер: 3.59 ГБ | Добавлен: 12 фев 2018
Раздают: 0    Качают: 5
Скачать торрент
Скачать торрент
Описание торрента

СообщениеДобавлено: 12 фев 2018 

Удивительные подземные тайны (1-2 серии из 3) / Amazing Underground Secrets

Перевод: Профессиональный (одноголосый), cубтитры: отсутствуют
Формат: DVB, MPEG-TS, MPEG2, MP2
Страна: Великобритания, Spring Flms for Reader's Digest
Режиссер: Линетт Сингер
Жанр: документальный, научно-познавательный
Продолжительность: 2 x ~00:56:00
Год выпуска: 2011

Описание: Мы никогда не задумываемся об этом в нашей повседневной жизни - но у нас под ногами лежит целый другой мир. Это и извивающиеся тоннели, огромные пещеры и даже целые города. Удивительное многообразие подземных сооружений, которое доказывает, что наша планета - это не только то, что мы видим. О чем-то, спрятавшемся у нас под ногами, мы знаем. А о чем-то - не знаем ничего. Что-то мы даже и не предполагали когда-либо найти или увидеть. Этот сериал, в поисках спрятанной там истории, заглядывают глубоко под землю. Мы путешествуем по земному шару в поисках подземных сооружений. Мы изучаем их конструкцию, узнаем их историю и беседуем с людьми, которые работают и даже живут под землей.

Видео: 720х[email protected] (16:9), 25 fps, MPEG Video 2 ([email protected]), ~4185 kbps avg, 0.404 bit/pixel
Аудио: 48 kHz, MPEG Layer 2, 2 ch, ~192.00 kbps avg

Доп. информация: переведено и озвучено - компания "Видеопродакшн"

Автор рипа и постера: skorpionN
01. Тайны и сокровища / Secrets and Treasures
02. Природные чудеса света / Natural Wonders


Код:
Код:
Общее
Идентификатор : 1 (0x1)
Полное имя : D:\Amazing Underground Secrets\01_Secrets and Treasures.ts
Формат : MPEG-TS
Размер файла : 1,80 Гбайт
Продолжительность : 55 м. 54 с.
Режим общего битрейта : Переменный
Общий поток : 4607 Кбит/сек

Видео
Идентификатор : 4113 (0x1011)
Идентификатор меню : 1 (0x1)
Формат : MPEG Video
Версия формата : Version 2
Профиль формата : [email protected]
Настройки формата : CustomMatrix / BVOP
Параметр BVOP формата : Да
Параметр матрицы формата : Выборочная
Параметр GOP формата : M=3, N=15
Структура изображения : Frame
Идентификатор кодека : 2
Продолжительность : 55 м. 54 с.
Вид битрейта : Переменный
Битрейт : 4185 Кбит/сек
Максимальный битрейт : 9800 Кбит/сек
Ширина : 720 пикселей
Высота : 576 пикселей
Соотношение сторон : 16:9
Частота кадров : 25,000 кадров/сек
Стандарт вещания : PAL
Цветовое пространство : YUV
Субдискретизация насыщенности : 4:2:0
Битовая глубина : 8 бит
Тип развёртки : Чересстрочная
Порядок развёртки : Верхнее поле первое
Метод сжатия : С потерями
Бит/(Пиксели*Кадры) : 0.404
Временной код первого кадра : 00:00:00:00
Оригинал временного кода : Group of pictures header
GOP, открыто/закрыто : Открыто
GOP, открыто/закрыто на первом кадре : Закрыто
Размер потока : 1,63 Гбайт (91%)

Аудио
Идентификатор : 6656 (0x1A00)
Идентификатор меню : 1 (0x1)
Формат : MPEG Audio
Версия формата : Version 1
Профиль формата : Layer 2
Идентификатор кодека : 3
Продолжительность : 55 м. 54 с.
Вид битрейта : Постоянный
Битрейт : 192 Кбит/сек
Каналы : 2 канала
Частота : 48,0 КГц
Частота кадров : 41,667 кадра/сек (1152 SPF)
Метод сжатия : С потерями
Размер потока : 76,8 Мбайт (4%)
Язык : English














   Похожие торренты   Торрент   Размер 
В этой теме нет новых непрочитанных сообщений. Секреты Луны (1-2 серии из 2) / Secrets of the Moon (Александр Абела) [2015, документальный, научно-познавательный, астрономия, DVB] DVO

8 | 0

1.79 ГБ

В этой теме нет новых непрочитанных сообщений. Вулкан (1-2 серии из 2) / The Volcano [2012, документальный, научно-познавательный, DVB] DVO

0 | 3

1.74 ГБ

В этой теме нет новых непрочитанных сообщений. Потомки (1-16 серии из ?) (ООО ЭсКаСи) [2017, документальный, исторический, научно-познавательный, IPTVRip]

4 | 2

5.49 ГБ

В этой теме нет новых непрочитанных сообщений. Потомки (1-5 серии из ?) (ООО ЭсКаСи) [2017, документальный, исторический, научно-познавательный, IPTVRip]

2 | 0

1.7 ГБ

В этой теме нет новых непрочитанных сообщений. Потомки (1-10 серии из ?) (ООО ЭсКаСи) [2017, документальный, исторический, научно-познавательный, IPTVRip]

1 | 2

3.43 ГБ

В этой теме нет новых непрочитанных сообщений. Потомки (Портреты революции) (1-6 серии из ?) (ООО ЭсКаСи) [2017, документальный, исторический, научно-познавательный, IPTVRip]

4 | 0

2.08 ГБ

В этой теме нет новых непрочитанных сообщений. Загадки русской истории (1-8 серии из 8) (Дмитрий Лукашов) [2006, документальный, научно-познавательный, история, DVB-AVC]

3 | 0

3.66 ГБ




Вы не можете начинать темы
Вы не можете отвечать на сообщения
Вы не можете редактировать свои сообщения
Вы не можете удалять свои сообщения
Вы не можете добавлять вложения

Перейти:  
Для Мосгорсуда, Роскомнадзора и рекламодателей: mosgorsud-torrent[собачка]yandex.ru
 Вход
ppkBB3cker v.2 © 2008-2014 @ PPK
[ Time : 0.042s | 18 Queries | GZIP : Off ]

cron