img image001 image001 image001 image001 image001 image001 image001 image001 image001 image001 image001 image001 image001 image001 image001

Planets Sun Sun Sun
Статистика раздачи
Автор: PriZraK | Размер: 4.05 ГБ | Добавлен: 13 фев 2014
Раздают: 152    Качают: 22
Скачать торрент
Скачать торрент
Описание торрента

СообщениеДобавлено: 13 фев 2014 




«Their deadly mission: to crack the forbidden island of Han!»


Информация о фильме
Название: Выход Дракона / Остров Дракона
Оригинальное название: Enter The Dragon
Год выхода: 1973
Жанр: боевик, триллер, драма, криминал
Режиссер: Роберт Клауз
В ролях: Брюс Ли, Джон Саксон, Анджела Мао, Джим Келли, Роберт Уолл, Боло Йенг, Бетти Чунг, Джеффри Викс, Питер Арчер, Хо Ли Ян, Марлен Кларк, Аллан Кент, Уильям Келлер, Мики Карузо, Пэт Э. Джонсон, Дарнелл Гарсиа

О фильме:
События переносят нас на остров, превращенный в крепость главарем боевиков, открывшим там школу боевых искусств, которая является лишь ширмой, маскирующей контрабандный бизнес. В эту цитадель проникает герой Брюса Ли и становится участником жестокого турнира…


Страна: США, Гонконг
Студия: Concord Productions Inc., Sequoia Productions, Warner Bros. Pictures Co.
Продолжительность: 01:42:33
Перевод: Дублированный, профессиональный (многоголосый закадровый), авторский (одноголосый закадровый)

Файл
Кодек: h.264
Качество: BDRip-AVC (Enter the Dragon (1973) [40th Anniversary Remastered Edition] Blu-ray 1080p AVC DD5.1-EbP)
Видео: 2776 Кбит/с, 1024x426, 23.976 кадр/с

Звук:
• №1: Русский (AC3, 6 ch, 384 Кбит/с) / Дублированный
• №2: Русский (AC3, 6 ch, 384 Кбит/с) / Профессиональный многоголосый (Superbit)
• №3: Русский (AC3, 2 ch, 192 Кбит/с) / Авторский одноголосый (Алексей Михалев)
• №4: Английский (AC3, 6 ch, 384 Кбит/с)
Отдельно:
• №5: Русский (AC3, 6 ch, 384 Кбит/с) / Авторский одноголосый (Владимир Королев)
• №6: Русский (AC3, 2 ch, 192 Кбит/с) / Авторский одноголосый (Леонид Володарский)
• №7: Русский (AC3, 2 ch, 192 Кбит/с) / Авторский одноголосый (Юрий Толбин)
• №8: Русский (AC3, 6 ch, 384 Кбит/с) / Авторский одноголосый (Юрий Живов)
• №9: Русский (AC3, 6 ch, 384 Кбит/с) / Авторский одноголосый (Василий Горчаков)

Субтитры: Русские, английские

-------------------------------------------------------------------------
x264 [info]: frame I:1164 Avg QP:19.04 size: 68550
x264 [info]: frame P:32641 Avg QP:22.03 size: 26848
x264 [info]: frame B:113724 Avg QP:23.53 size: 10367
-------------------------------------------------------------------------

Полное имя : Enter.The.Dragon.1973.x264.BDRip-AVC.0ptimus.mkv
Формат : Matroska
Версия формата : Version 2
Размер файла : 2,95 Гбайт
Продолжительность : 1 ч. 42 м.
Общий поток : 4123 Кбит/сек
Название фильма : Выход Дракона / Остров Дракона | Enter the Dragon [1973] -=BDRip (AVC) by 0ptimus=-
Дата кодирования : UTC 2014-02-01 10:38:35
Программа кодирования : mkvmerge v6.6.0 ('The Edge Of The In Between') built on Dec 1 2013 17:55:00
Библиотека кодирования : libebml v1.3.0 + libmatroska v1.4.1

Видео
Идентификатор : 1
Формат : AVC
Формат/Информация : Advanced Video Codec
Профиль формата : [email protected]
Параметр CABAC формата : Да
Параметр ReFrames формата : 9 кадров
Идентификатор кодека : V_MPEG4/ISO/AVC
Продолжительность : 1 ч. 42 м.
Битрейт : 2776 Кбит/сек
Ширина : 1024 пикселя
Высота : 426 пикселей
Соотношение сторон : 2,40:1
Режим частоты кадров : Постоянный
Частота кадров : 23,976 кадра/сек
Цветовое пространство : YUV
Субдискретизация насыщенности : 4:2:0
Битовая глубина : 8 бит
Тип развёртки : Прогрессивная
Бит/(Пиксели*Кадры) : 0.265
Размер потока : 1,93 Гбайт (65%)
Заголовок : Rip by 0ptimus
Библиотека кодирования : x264 core 133 r2334 a3ac64b
Настройки программы : cabac=1 / ref=9 / deblock=1:-3:-3 / analyse=0x3:0x113 / me=umh / subme=11 / psy=1 / psy_rd=1.00:0.20 / mixed_ref=1 / me_range=32 / chroma_me=1 / trellis=2 / 8x8dct=1 / cqm=0 / deadzone=21,11 / fast_pskip=0 / chroma_qp_offset=-3 / threads=3 / lookahead_threads=1 / sliced_threads=0 / nr=0 / decimate=0 / interlaced=0 / bluray_compat=0 / constrained_intra=0 / bframes=8 / b_pyramid=2 / b_adapt=2 / b_bias=0 / direct=3 / weightb=1 / open_gop=0 / weightp=2 / keyint=240 / keyint_min=23 / scenecut=40 / intra_refresh=0 / rc_lookahead=40 / rc=2pass / mbtree=0 / bitrate=2776 / ratetol=1.0 / qcomp=0.60 / qpmin=0 / qpmax=69 / qpstep=4 / cplxblur=20.0 / qblur=0.5 / vbv_maxrate=50000 / vbv_bufsize=50000 / nal_hrd=none / ip_ratio=1.40 / pb_ratio=1.30 / aq=1:1.00
Язык : English
Default : Да
Forced : Да

Аудио #1
Идентификатор : 2
Формат : AC-3
Формат/Информация : Audio Coding 3
Расширение режима : CM (complete main)
Параметр Endianness формата : Big
Идентификатор кодека : A_AC3
Продолжительность : 1 ч. 42 м.
Вид битрейта : Постоянный
Битрейт : 384 Кбит/сек
Каналы : 6 каналов
Расположение каналов : Front: L C R, Side: L R, LFE
Частота : 48,0 КГц
Битовая глубина : 16 бит
Метод сжатия : С потерями
Размер потока : 282 Мбайт (9%)
Заголовок : Дублироованный AC3 5.1 @ 384 kbps
Язык : Russian
Default : Да
Forced : Да

Аудио #2
Идентификатор : 3
Формат : AC-3
Формат/Информация : Audio Coding 3
Расширение режима : CM (complete main)
Параметр Endianness формата : Big
Идентификатор кодека : A_AC3
Продолжительность : 1 ч. 42 м.
Вид битрейта : Постоянный
Битрейт : 384 Кбит/сек
Каналы : 6 каналов
Расположение каналов : Front: L C R, Side: L R, LFE
Частота : 48,0 КГц
Битовая глубина : 16 бит
Метод сжатия : С потерями
Размер потока : 282 Мбайт (9%)
Заголовок : Многоголосый закадровый [Superbit] AC3 5.1 @ 384 kbps
Язык : Russian
Default : Нет
Forced : Нет

Аудио #3
Идентификатор : 4
Формат : AC-3
Формат/Информация : Audio Coding 3
Расширение режима : CM (complete main)
Параметр Endianness формата : Big
Идентификатор кодека : A_AC3
Продолжительность : 1 ч. 42 м.
Вид битрейта : Постоянный
Битрейт : 192 Кбит/сек
Каналы : 2 канала
Расположение каналов : Front: L R
Частота : 48,0 КГц
Битовая глубина : 16 бит
Метод сжатия : С потерями
Размер потока : 141 Мбайт (5%)
Заголовок : Авторский [Алексей Михалев] AC3 2.0 @ 192 kbps
Язык : Russian
Default : Нет
Forced : Нет

Аудио #4
Идентификатор : 5
Формат : AC-3
Формат/Информация : Audio Coding 3
Расширение режима : CM (complete main)
Параметр Endianness формата : Big
Идентификатор кодека : A_AC3
Продолжительность : 1 ч. 42 м.
Вид битрейта : Постоянный
Битрейт : 384 Кбит/сек
Каналы : 6 каналов
Расположение каналов : Front: L C R, Side: L R, LFE
Частота : 48,0 КГц
Битовая глубина : 16 бит
Метод сжатия : С потерями
Размер потока : 282 Мбайт (9%)
Заголовок : AC3 5.1 @ 384 kbps
Язык : English
Default : Нет
Forced : Нет

Текст #1
Идентификатор : 6
Формат : UTF-8
Идентификатор кодека : S_TEXT/UTF8
Идентификатор кодека/Информация : UTF-8 Plain Text
Язык : Russian
Default : Нет
Forced : Нет

Текст #2
Идентификатор : 7
Формат : UTF-8
Идентификатор кодека : S_TEXT/UTF8
Идентификатор кодека/Информация : UTF-8 Plain Text
Язык : English
Default : Нет
Forced : Нет

Меню
00:00:00.000 : en:The Winner
00:02:29.316 : en:A Martial Artist's Responsibility
00:05:28.495 : en:Emotional Content
00:08:26.339 : en:Honk Kong Arrivals
00:10:40.640 : en:Background on Han
00:14:39.212 : en:Su Lin's Tragedy
00:20:16.215 : en:Roper: A Betting Man
00:25:08.340 : en:Williams on the Run
00:27:40.993 : en:Odds on Insects
00:31:34.059 : en:Parsons Takes a Ride
00:34:03.875 : en:Han's Hospitalit
00:39:00.171 : en:Fattened for the Kill?
00:41:53.678 : en:After-Hours Menu
00:45:21.052 : en:Morning Ritual
00:46:35.459 : en:"Let the Tournament Begin"
00:50:48.212 : en:Midnight Exploration
00:55:11.475 : en:Caught in the Act
00:57:56.306 : en:Punishment
01:00:36.132 : en:Lee vs. Oharra
01:05:27.924 : en:Willams vs. Han
01:09:00.303 : en:Roper's Limit
01:11:25.281 : en:Clear Understanding
01:16:01.056 : en:Radio Room Raid
01:20:09.972 : en:Cavern Combat
01:25:09.104 : en:Roper vs. Bolo
01:28:51.660 : en:Fighting Frenzy
01:31:37.158 : en:Lee vs. Han
01:35:14.542 : en:Reflection of Death
01:40:24.018 : en:Thumbs Up




Релиз от:



   Похожие торренты   Торрент   Размер 
В этой теме нет новых непрочитанных сообщений. Выход Дракона / Остров Дракона / Enter The Dragon (1973) BDRip-AVC от 0ptimus | D, P2, A

11 | 6

4.05 ГБ

В этой теме нет новых непрочитанных сообщений. Выход Дракона / Enter The Dragon (1973) BDRip

4 | 5

1.85 ГБ

В этой теме нет новых непрочитанных сообщений. Выход Дракона / Enter The Dragon (1973) BDRip | A

53 | 1

2.18 ГБ

В этой теме нет новых непрочитанных сообщений. Выход Дракона / Enter the Dragon (1973) BDRip 1080p

46 | 11

7.76 ГБ

В этой теме нет новых непрочитанных сообщений. Выход Дракона / Enter The Dragon (1973) BDRip 720p

54 | 6

4.37 ГБ

В этой теме нет новых непрочитанных сообщений. Выход Дракона / Enter the Dragon (1973) BDRip от HQCLUB

108 | 4

2.18 ГБ

В этой теме нет новых непрочитанных сообщений. Выход Дракона / Enter The Dragon (1973) BDRip от HELLYWOOD

1 | 4

2.5 ГБ




Вы не можете начинать темы
Вы не можете отвечать на сообщения
Вы не можете редактировать свои сообщения
Вы не можете удалять свои сообщения
Вы не можете добавлять вложения

Перейти:  
Для Мосгорсуда, Роскомнадзора и рекламодателей: mosgorsud-torrent[собачка]yandex.ru
 Вход
ppkBB3cker v.2 © 2008-2014 @ PPK
[ Time : 0.049s | 18 Queries | GZIP : Off ]

cron