El Salvador
Equatorial Guinea
img image001 image001 image001 image001 image001 image001 image001 image001 image001 image001 image001 image001 image001 image001 image001 image001
Planets Sun Sun Sun
Статистика раздачи
Автор: Nickolas3434 | Размер: 38.66 ГБ | Добавлен: 20 сен 2014
Раздают: 211    Качают: 181
Скачать торрент
Скачать торрент
Описание торрента

СообщениеДобавлено: 20 сен 2014 


Жанр: Фантастика, боевик, комедия, приключения, семейный, вестерн
Год выпуска: 1985 / 1989 / 1990
Продолжительность: 01:56:01 | 01:47:59 | 01:58:18
Режиссёр: Роберт Земекис




Информация о фильме
Название: Назад в будущее
Оригинальное название: Back to the Future
Год выхода: 1985
Жанр: Фантастика, комедия, приключения
Режиссер: Роберт Земекис
В ролях: Майкл Дж. Фокс, Кристофер Ллойд, Лиа Томпсон, Криспин Гловер, Томас Ф. Уилсон, Клодия Уэллс, Марк МакКлюр, Уэнди Джо Спербер, Джордж ДиЧенцо, Фрэнсис Ли МакКейн

О фильме:
Подросток Марти с помощью машины времени, сооруженной его другом профессором доком Брауном, попадает из 80-х в далекие 50-е. Там он встречается со своими будущими родителями, еще подростками, и другом-профессором, совсем молодым.



Страна: США
Студия: Amblin Entertainment, U-Drive Productions, Universal Pictures
Продолжительность: 01:56:01
Перевод: Дублированный |Blu-ray CEE| + Профессиональный (двухголосый, закадровый) Пётр Гланц + Евгения Лютая + Профессиональный (двухголосый, закадровый) Игорь Тарадайкин + Любовь Германова [Премьер-видео] + Авторский (одноголосый, закадровый) Андрей Гаврилов + Авторский (одноголосый, закадровый) Алексей Михалёв + Авторский (одноголосый, закадровый) Василий Горчаков + Оригинал

Файл
Кодек: x264
Качество: BDRip 1080p (источник: RoxMarty / Blu-ray Remux / 1080p)
Видео: 1920х1040 (1.85:1), 14711 Kbps, 23.976 fps, 0.307 bit/pixel
Аудио #1: 48.0 kHz, AC3 Dolby Digital, 3/2 (L,C,R,l,r) + LFE ch, 640 kbps [Дубляж, Blu-ray CEE]
Аудио #2: 48.0 kHz, AC3 Dolby Digital, 3/2 (L,C,R,l,r) + LFE ch, 640 kbps [Двухголосый, П. Гланц + Е. Лютая]
Аудио #3: 48.0 kHz, AC3 Dolby Digital, 3/2 (L,C,R,l,r) + LFE ch, 640 kbps [Двухголосый, И. Тарадайкин + Л. Германова [Премьер-видео]]
Аудио #4: 48.0 kHz, AC3 Dolby Digital, 3/2 (L,C,R,l,r) + LFE ch, 640 kbps [Авторский, А. Гаврилов]
Аудио #5: 48.0 kHz, AC3 Dolby Digital, 3/2 (L,C,R,l,r) + LFE ch, 640 kbps [Авторский, А. Михалёв]
Аудио #6: 48.0 kHz, AC3 Dolby Digital, 3/2 (L,C,R,l,r) + LFE ch, 640 kbps [Авторский, В. Горчаков]
Аудио #7: 48.0 kHz, AC3 Dolby Digital, 3/2 (L,C,R,l,r) + LFE ch, 640 kbps [Оригинал, Английский]
Субтитры: Русские [форсированные, полные], Английские [полные, SDH]

Семпл



x264 [info]: frame I:1094 Avg QP:17.27 size:212877
x264 [info]: frame P:36352 Avg QP:19.82 size:119937
x264 [info]: frame B:129451 Avg QP:21.71 size: 63373
General
Unique ID : 254204322864119376986608775015281753925 (0xBF3DF8C3EE51E27C872B66B9AF287F45)
Complete name : E:Back.to.the.Future.Trilogy.1985-1990.x264.BDRip.1080pBack.to.the.Future.1985.x264.BDRip.1080p.mkv
Format : Matroska
Format version : Version 2
File size : 15.6 GiB
Duration : 1h 56mn
Overall bit rate : 19.2 Mbps
Encoded date : UTC 2014-09-20 05:41:26
Writing application : mkvmerge v5.8.0 ('No Sleep / Pillow') built on Sep 2 2012 15:37:04
Writing library : libebml v1.2.3 + libmatroska v1.3.0

Video
ID : 1
Format : AVC
Format/Info : Advanced Video Codec
Format profile : [email protected]
Format settings, CABAC : Yes
Format settings, ReFrames : 4 frames
Codec ID : V_MPEG4/ISO/AVC
Duration : 1h 56mn
Bit rate : 14.7 Mbps
Width : 1 920 pixels
Height : 1 040 pixels
Display aspect ratio : 1.85:1
Frame rate mode : Constant
Frame rate : 23.976 fps
Color space : YUV
Chroma subsampling : 4:2:0
Bit depth : 8 bits
Scan type : Progressive
Bits/(Pixel*Frame) : 0.307
Stream size : 11.6 GiB (75%)
Writing library : x264 core 142 r2479 dd79a61
Encoding settings : cabac=1 / ref=4 / deblock=1:-1:-1 / analyse=0x3:0x133 / me=tesa / subme=11 / psy=1 / psy_rd=1.00:0.00 / mixed_ref=1 / me_range=32 / chroma_me=1 / trellis=2 / 8x8dct=1 / cqm=0 / deadzone=21,11 / fast_pskip=0 / chroma_qp_offset=-2 / threads=12 / lookahead_threads=3 / sliced_threads=0 / nr=0 / decimate=0 / interlaced=0 / bluray_compat=0 / constrained_intra=0 / bframes=10 / b_pyramid=2 / b_adapt=2 / b_bias=0 / direct=3 / weightb=1 / open_gop=0 / weightp=2 / keyint=240 / keyint_min=23 / scenecut=40 / intra_refresh=0 / rc=2pass / mbtree=0 / bitrate=14711 / ratetol=1.0 / qcomp=0.60 / qpmin=0 / qpmax=69 / qpstep=4 / cplxblur=20.0 / qblur=0.5 / ip_ratio=1.40 / pb_ratio=1.30 / aq=1:1.00
Language : English
Default : Yes
Forced : No

Audio #1
ID : 2
Format : AC-3
Format/Info : Audio Coding 3
Mode extension : CM (complete main)
Format settings, Endianness : Big
Codec ID : A_AC3
Duration : 1h 56mn
Bit rate mode : Constant
Bit rate : 640 Kbps
Channel(s) : 6 channels
Channel positions : Front: L C R, Side: L R, LFE
Sampling rate : 48.0 KHz
Bit depth : 16 bits
Compression mode : Lossy
Stream size : 531 MiB (3%)
Title : Дубляж, Blu-ray CEE
Language : Russian
Default : Yes
Forced : No

Audio #2
ID : 3
Format : AC-3
Format/Info : Audio Coding 3
Mode extension : CM (complete main)
Format settings, Endianness : Big
Codec ID : A_AC3
Duration : 1h 56mn
Bit rate mode : Constant
Bit rate : 640 Kbps
Channel(s) : 6 channels
Channel positions : Front: L C R, Side: L R, LFE
Sampling rate : 48.0 KHz
Bit depth : 16 bits
Compression mode : Lossy
Stream size : 531 MiB (3%)
Title : Двухголосый, П. Гланц + Е. Лютая
Language : Russian
Default : No
Forced : No

Audio #3
ID : 4
Format : AC-3
Format/Info : Audio Coding 3
Mode extension : CM (complete main)
Format settings, Endianness : Big
Codec ID : A_AC3
Duration : 1h 56mn
Bit rate mode : Constant
Bit rate : 640 Kbps
Channel(s) : 6 channels
Channel positions : Front: L C R, Side: L R, LFE
Sampling rate : 48.0 KHz
Bit depth : 16 bits
Compression mode : Lossy
Stream size : 531 MiB (3%)
Title : Двухголосый, И. Тарадайкин + Л. Германова [Премьер-видео]
Language : Russian
Default : No
Forced : No

Audio #4
ID : 5
Format : AC-3
Format/Info : Audio Coding 3
Mode extension : CM (complete main)
Format settings, Endianness : Big
Codec ID : A_AC3
Duration : 1h 56mn
Bit rate mode : Constant
Bit rate : 640 Kbps
Channel(s) : 6 channels
Channel positions : Front: L C R, Side: L R, LFE
Sampling rate : 48.0 KHz
Bit depth : 16 bits
Compression mode : Lossy
Stream size : 531 MiB (3%)
Title : Авторский, А. Гаврилов
Language : Russian
Default : No
Forced : No

Audio #5
ID : 6
Format : AC-3
Format/Info : Audio Coding 3
Mode extension : CM (complete main)
Format settings, Endianness : Big
Codec ID : A_AC3
Duration : 1h 56mn
Bit rate mode : Constant
Bit rate : 640 Kbps
Channel(s) : 6 channels
Channel positions : Front: L C R, Side: L R, LFE
Sampling rate : 48.0 KHz
Bit depth : 16 bits
Compression mode : Lossy
Stream size : 531 MiB (3%)
Title : Авторский, А. Михалёв
Language : Russian
Default : No
Forced : No

Audio #6
ID : 7
Format : AC-3
Format/Info : Audio Coding 3
Mode extension : CM (complete main)
Format settings, Endianness : Big
Codec ID : A_AC3
Duration : 1h 56mn
Bit rate mode : Constant
Bit rate : 640 Kbps
Channel(s) : 6 channels
Channel positions : Front: L C R, Side: L R, LFE
Sampling rate : 48.0 KHz
Bit depth : 16 bits
Compression mode : Lossy
Stream size : 531 MiB (3%)
Title : Авторский, В. Горчаков
Language : Russian
Default : No
Forced : No

Audio #7
ID : 8
Format : AC-3
Format/Info : Audio Coding 3
Mode extension : CM (complete main)
Format settings, Endianness : Big
Codec ID : A_AC3
Duration : 1h 56mn
Bit rate mode : Constant
Bit rate : 640 Kbps
Channel(s) : 6 channels
Channel positions : Front: L C R, Side: L R, LFE
Sampling rate : 48.0 KHz
Bit depth : 16 bits
Compression mode : Lossy
Stream size : 531 MiB (3%)
Title : Оригинал, Английский
Language : English
Default : No
Forced : No

Text #1
ID : 9
Format : UTF-8
Codec ID : S_TEXT/UTF8
Codec ID/Info : UTF-8 Plain Text
Title : Форсированные
Language : Russian
Default : Yes
Forced : No

Text #2
ID : 10
Format : UTF-8
Codec ID : S_TEXT/UTF8
Codec ID/Info : UTF-8 Plain Text
Title : Полные
Language : Russian
Default : No
Forced : No

Text #3
ID : 11
Format : UTF-8
Codec ID : S_TEXT/UTF8
Codec ID/Info : UTF-8 Plain Text
Title : Полные
Language : English
Default : No
Forced : No

Text #4
ID : 12
Format : UTF-8
Codec ID : S_TEXT/UTF8
Codec ID/Info : UTF-8 Plain Text
Title : SDH
Language : English
Default : No
Forced : No

Menu
00:00:00.000 : en:Main Titles
00:04:13.544 : en:Late for School
00:06:47.281 : en:The Slacker
00:11:45.246 : en:The Family McFly
00:18:04.166 : en:A Time Machine?
00:28:12.273 : en:Escape to the Past
00:31:30.680 : en:1955
00:38:40.693 : en:Dad the Dork
00:41:22.313 : en:Calvin & Lorraine
00:47:53.370 : en:Future Boy & Doc
00:55:53.141 : en:Marty's Problem
00:58:49.859 : en:The Matchmaker
01:05:16.787 : en:Skateboard Hero
01:16:40.304 : en:The Big Date
01:20:14.643 : en:The Real George
01:27:23.321 : en:Johnny B. Goode
01:31:12.049 : en:Back to the Future
01:41:40.552 : en:Doc's Decision
01:46:41.436 : en:Future Shock
01:51:24.511 : en:Roads? (Credits)


Информация о фильме
Название: Назад в будущее 2
Оригинальное название: Back to the Future Part II
Год выхода: 1989
Жанр: Фантастика, боевик, комедия, приключения, семейный
Режиссер: Роберт Земекис
В ролях: Майкл Дж. Фокс, Кристофер Ллойд, Лиа Томпсон, Томас Ф. Уилсон, Элизабет Шу, Джеймс Толкан, Джеффри Вайсман, Кэйси Семашко, Билли Зейн, Дж.Дж. Коэн

О фильме:
Продолжение фантастической истории о приключениях американского подростка во времени. На этот раз с помощью модернизированной Доком машины времени Марти из 80-х попадает в будущее.
Дети Марти в беде, и их надо выручать. Приходится повозиться со злодеем…



Страна: США
Студия: Amblin Entertainment, U-Drive Productions, Universal Pictures
Продолжительность: 01:47:59
Перевод: Дублированный |Blu-ray CEE| + Профессиональный (двухголосый, закадровый) Пётр Гланц + Евгения Лютая + Профессиональный (двухголосый, закадровый) Игорь Тарадайкин + Любовь Германова [Премьер-видео] + Авторский (одноголосый, закадровый) Андрей Гаврилов + Авторский (одноголосый, закадровый) Алексей Михалёв + Авторский (одноголосый, закадровый) Василий Горчаков + Оригинал

Файл
Кодек: x264
Качество: BDRip 1080p (источник: RoxMarty / Blu-ray Remux / 1080p)
Видео: 1920х1040 (1.85:1), 10835 Kbps, 23.976 fps, 0.226 bit/pixel
Аудио #1: 48.0 kHz, AC3 Dolby Digital, 3/2 (L,C,R,l,r) + LFE ch, 640 kbps [Дубляж, Blu-ray CEE]
Аудио #2: 48.0 kHz, AC3 Dolby Digital, 3/2 (L,C,R,l,r) + LFE ch, 640 kbps [Двухголосый, П. Гланц + Е. Лютая]
Аудио #3: 48.0 kHz, AC3 Dolby Digital, 3/2 (L,C,R,l,r) + LFE ch, 640 kbps [Двухголосый, И. Тарадайкин + Л. Германова [Премьер-видео]]
Аудио #4: 48.0 kHz, AC3 Dolby Digital, 3/2 (L,C,R,l,r) + LFE ch, 640 kbps [Авторский, А. Гаврилов]
Аудио #5: 48.0 kHz, AC3 Dolby Digital, 3/2 (L,C,R,l,r) + LFE ch, 640 kbps [Авторский, А. Михалёв]
Аудио #6: 48.0 kHz, AC3 Dolby Digital, 3/2 (L,C,R,l,r) + LFE ch, 640 kbps [Авторский, В. Горчаков]
Аудио #7: 48.0 kHz, AC3 Dolby Digital, 3/2 (L,C,R,l,r) + LFE ch, 640 kbps [Оригинал, Английский]
Субтитры: Русские [форсированные, полные], Английские [полные, SDH]

Семпл



x264 [info]: frame I:1023 Avg QP:15.05 size:199857
x264 [info]: frame P:35450 Avg QP:17.66 size: 95069
x264 [info]: frame B:118875 Avg QP:19.64 size: 43738
General
Unique ID : 197432155379963118908383243889954242011 (0x94880CCD011E6E5AA6317DC8C27FBDDB)
Complete name : E:Back.to.the.Future.Trilogy.1985-1990.x264.BDRip.1080pBack.to.the.Future.Part.II.1989.x264.BDRip.1080p.mkv
Format : Matroska
Format version : Version 2
File size : 11.6 GiB
Duration : 1h 48mn
Overall bit rate : 15.3 Mbps
Encoded date : UTC 2014-09-20 10:15:35
Writing application : mkvmerge v5.8.0 ('No Sleep / Pillow') built on Sep 2 2012 15:37:04
Writing library : libebml v1.2.3 + libmatroska v1.3.0

Video
ID : 1
Format : AVC
Format/Info : Advanced Video Codec
Format profile : [email protected]
Format settings, CABAC : Yes
Format settings, ReFrames : 4 frames
Codec ID : V_MPEG4/ISO/AVC
Duration : 1h 48mn
Bit rate : 10.8 Mbps
Width : 1 920 pixels
Height : 1 040 pixels
Display aspect ratio : 1.85:1
Frame rate mode : Constant
Frame rate : 23.976 fps
Color space : YUV
Chroma subsampling : 4:2:0
Bit depth : 8 bits
Scan type : Progressive
Bits/(Pixel*Frame) : 0.226
Stream size : 7.94 GiB (69%)
Writing library : x264 core 142 r2479 dd79a61
Encoding settings : cabac=1 / ref=4 / deblock=1:-3:-3 / analyse=0x3:0x133 / me=tesa / subme=11 / psy=1 / psy_rd=1.00:0.00 / mixed_ref=1 / me_range=32 / chroma_me=1 / trellis=2 / 8x8dct=1 / cqm=0 / deadzone=21,11 / fast_pskip=0 / chroma_qp_offset=-2 / threads=12 / lookahead_threads=3 / sliced_threads=0 / nr=0 / decimate=0 / interlaced=0 / bluray_compat=0 / constrained_intra=0 / bframes=10 / b_pyramid=2 / b_adapt=2 / b_bias=0 / direct=3 / weightb=1 / open_gop=0 / weightp=2 / keyint=240 / keyint_min=23 / scenecut=40 / intra_refresh=0 / rc=2pass / mbtree=0 / bitrate=10835 / ratetol=1.0 / qcomp=0.60 / qpmin=0 / qpmax=69 / qpstep=4 / cplxblur=20.0 / qblur=0.5 / ip_ratio=1.40 / pb_ratio=1.30 / aq=1:1.00
Language : English
Default : Yes
Forced : No

Audio #1
ID : 2
Format : AC-3
Format/Info : Audio Coding 3
Mode extension : CM (complete main)
Format settings, Endianness : Big
Codec ID : A_AC3
Duration : 1h 48mn
Bit rate mode : Constant
Bit rate : 640 Kbps
Channel(s) : 6 channels
Channel positions : Front: L C R, Side: L R, LFE
Sampling rate : 48.0 KHz
Bit depth : 16 bits
Compression mode : Lossy
Stream size : 495 MiB (4%)
Title : Дубляж, Blu-ray CEE
Language : Russian
Default : Yes
Forced : No

Audio #2
ID : 3
Format : AC-3
Format/Info : Audio Coding 3
Mode extension : CM (complete main)
Format settings, Endianness : Big
Codec ID : A_AC3
Duration : 1h 48mn
Bit rate mode : Constant
Bit rate : 640 Kbps
Channel(s) : 6 channels
Channel positions : Front: L C R, Side: L R, LFE
Sampling rate : 48.0 KHz
Bit depth : 16 bits
Compression mode : Lossy
Stream size : 495 MiB (4%)
Title : Двухголосый, П. Гланц + Е. Лютая
Language : Russian
Default : No
Forced : No

Audio #3
ID : 4
Format : AC-3
Format/Info : Audio Coding 3
Mode extension : CM (complete main)
Format settings, Endianness : Big
Codec ID : A_AC3
Duration : 1h 48mn
Bit rate mode : Constant
Bit rate : 640 Kbps
Channel(s) : 6 channels
Channel positions : Front: L C R, Side: L R, LFE
Sampling rate : 48.0 KHz
Bit depth : 16 bits
Compression mode : Lossy
Stream size : 495 MiB (4%)
Title : Двухголосый, И. Тарадайкин + Л. Германова [Премьер-видео]
Language : Russian
Default : No
Forced : No

Audio #4
ID : 5
Format : AC-3
Format/Info : Audio Coding 3
Mode extension : CM (complete main)
Format settings, Endianness : Big
Codec ID : A_AC3
Duration : 1h 48mn
Bit rate mode : Constant
Bit rate : 640 Kbps
Channel(s) : 6 channels
Channel positions : Front: L C R, Side: L R, LFE
Sampling rate : 48.0 KHz
Bit depth : 16 bits
Compression mode : Lossy
Stream size : 495 MiB (4%)
Title : Авторский, А. Гаврилов
Language : Russian
Default : No
Forced : No

Audio #5
ID : 6
Format : AC-3
Format/Info : Audio Coding 3
Mode extension : CM (complete main)
Format settings, Endianness : Big
Codec ID : A_AC3
Duration : 1h 48mn
Bit rate mode : Constant
Bit rate : 640 Kbps
Channel(s) : 6 channels
Channel positions : Front: L C R, Side: L R, LFE
Sampling rate : 48.0 KHz
Bit depth : 16 bits
Compression mode : Lossy
Stream size : 495 MiB (4%)
Title : Авторский, А. Михалёв
Language : Russian
Default : No
Forced : No

Audio #6
ID : 7
Format : AC-3
Format/Info : Audio Coding 3
Mode extension : CM (complete main)
Format settings, Endianness : Big
Codec ID : A_AC3
Duration : 1h 48mn
Bit rate mode : Constant
Bit rate : 640 Kbps
Channel(s) : 6 channels
Channel positions : Front: L C R, Side: L R, LFE
Sampling rate : 48.0 KHz
Bit depth : 16 bits
Compression mode : Lossy
Stream size : 495 MiB (4%)
Title : Авторский, В. Горчаков
Language : Russian
Default : No
Forced : No

Audio #7
ID : 8
Format : AC-3
Format/Info : Audio Coding 3
Mode extension : CM (complete main)
Format settings, Endianness : Big
Codec ID : A_AC3
Duration : 1h 48mn
Bit rate mode : Constant
Bit rate : 640 Kbps
Channel(s) : 6 channels
Channel positions : Front: L C R, Side: L R, LFE
Sampling rate : 48.0 KHz
Bit depth : 16 bits
Compression mode : Lossy
Stream size : 495 MiB (4%)
Title : Оригинал, Английский
Language : English
Default : No
Forced : No

Text #1
ID : 9
Format : UTF-8
Codec ID : S_TEXT/UTF8
Codec ID/Info : UTF-8 Plain Text
Title : Форсированные
Language : Russian
Default : Yes
Forced : No

Text #2
ID : 10
Format : UTF-8
Codec ID : S_TEXT/UTF8
Codec ID/Info : UTF-8 Plain Text
Title : Полные
Language : Russian
Default : No
Forced : No

Text #3
ID : 11
Format : UTF-8
Codec ID : S_TEXT/UTF8
Codec ID/Info : UTF-8 Plain Text
Title : Полные
Language : English
Default : No
Forced : No

Text #4
ID : 12
Format : UTF-8
Codec ID : S_TEXT/UTF8
Codec ID/Info : UTF-8 Plain Text
Title : SDH
Language : English
Default : No
Forced : No

Menu
00:00:00.000 : en:00:00:00.000
00:02:57.511 : en:00:02:57.511
00:04:17.632 : en:00:04:17.632
00:12:44.389 : en:00:12:44.389
00:17:09.111 : en:00:17:09.111
00:21:16.525 : en:00:21:16.525
00:26:59.660 : en:00:26:59.660
00:34:15.428 : en:00:34:15.428
00:38:32.477 : en:00:38:32.477
00:46:13.062 : en:00:46:13.062
00:50:35.449 : en:00:50:35.449
00:55:32.621 : en:00:55:32.621
01:01:30.145 : en:01:01:30.145
01:07:14.197 : en:01:07:14.197
01:14:45.940 : en:01:14:45.940
01:28:00.609 : en:01:28:00.609
01:34:43.303 : en:01:34:43.303
01:37:46.027 : en:01:37:46.027
01:40:37.240 : en:01:40:37.240
01:43:25.491 : en:01:43:25.491


Информация о фильме
Название: Назад в будущее 3
Оригинальное название: Back to the Future Part III
Год выхода: 1990
Жанр: Фантастика, комедия, приключения, вестерн
Режиссер: Роберт Земекис
В ролях: Майкл Дж. Фокс, Кристофер Ллойд, Мэри Стинберген, Томас Ф. Уилсон, Лиа Томпсон, Элизабет Шу, Мэтт Кларк, Ричард А. Дайсарт, Пэт Баттрем, Гарри Кэри мл.

О фильме:
Из газет 1955 года Марти узнает, что доктор Браун погиб еще сто лет назад. Несмотря на просьбы Дока не навещать его в XIX веке, Марти вновь хочет вмешаться в ход событий и на машине времени уносится в 1885 год, навстречу Дикому Западу.

Это путешествие, как и все прежние, не обходится без опасных приключений, но смелый Марти, рискуя жизнью, предотвращает трагедию в жизни Эммета Брауна. Тот, в свою очередь, без памяти влюбляется в очаровательную незнакомку, которую спасает от гибели, и поездка домой — в будущее — теряет для него всякий смысл…



Страна: США
Студия: Amblin Entertainment, U-Drive Productions, Universal Pictures
Продолжительность: 01:58:18
Перевод: Дублированный |Blu-ray CEE| + Профессиональный (двухголосый, закадровый) Пётр Гланц + Евгения Лютая + Профессиональный (двухголосый, закадровый) Игорь Тарадайкин + Любовь Германова [Премьер-видео] + Авторский (одноголосый, закадровый) Андрей Гаврилов + Авторский (одноголосый, закадровый) Алексей Михалёв + Авторский (одноголосый, закадровый) Василий Горчаков + Оригинал

Файл
Кодек: x264
Качество: BDRip 1080p (источник: RoxMarty / Blu-ray Remux / 1080p)
Видео: 1920х1040 (1.85:1), 9503 Kbps, 23.976 fps, 0.198 bit/pixel
Аудио #1: 48.0 kHz, AC3 Dolby Digital, 3/2 (L,C,R,l,r) + LFE ch, 640 kbps [Дубляж, Blu-ray CEE]
Аудио #2: 48.0 kHz, AC3 Dolby Digital, 3/2 (L,C,R,l,r) + LFE ch, 640 kbps [Двухголосый, П. Гланц + Е. Лютая]
Аудио #3: 48.0 kHz, AC3 Dolby Digital, 3/2 (L,C,R,l,r) + LFE ch, 640 kbps [Двухголосый, И. Тарадайкин + Л. Германова [Премьер-видео]]
Аудио #4: 48.0 kHz, AC3 Dolby Digital, 3/2 (L,C,R,l,r) + LFE ch, 640 kbps [Авторский, А. Гаврилов]
Аудио #5: 48.0 kHz, AC3 Dolby Digital, 3/2 (L,C,R,l,r) + LFE ch, 640 kbps [Авторский, А. Михалёв]
Аудио #6: 48.0 kHz, AC3 Dolby Digital, 3/2 (L,C,R,l,r) + LFE ch, 640 kbps [Авторский, В. Горчаков]
Аудио #7: 48.0 kHz, AC3 Dolby Digital, 3/2 (L,C,R,l,r) + LFE ch, 640 kbps [Оригинал, Английский]
Субтитры: Русские, английские

Семпл



x264 [info]: frame I:1182 Avg QP:16.25 size:228860
x264 [info]: frame P:37592 Avg QP:18.77 size: 91663
x264 [info]: frame B:131398 Avg QP:20.90 size: 35835
General
Unique ID : 232659473578492945828422322674720172591 (0xAF0895AEF74AC0AF80AA41FBDF59EA2F)
Complete name : E:Back.to.the.Future.Trilogy.1985-1990.x264.BDRip.1080pBack.to.the.Future.Part.III.1990.x264.BDRip.1080p.mkv
Format : Matroska
Format version : Version 2
File size : 11.6 GiB
Duration : 1h 58mn
Overall bit rate : 14.0 Mbps
Encoded date : UTC 2014-09-20 12:52:21
Writing application : mkvmerge v5.8.0 ('No Sleep / Pillow') built on Sep 2 2012 15:37:04
Writing library : libebml v1.2.3 + libmatroska v1.3.0

Video
ID : 1
Format : AVC
Format/Info : Advanced Video Codec
Format profile : [email protected]
Format settings, CABAC : Yes
Format settings, ReFrames : 4 frames
Codec ID : V_MPEG4/ISO/AVC
Duration : 1h 58mn
Bit rate : 9 503 Kbps
Width : 1 920 pixels
Height : 1 040 pixels
Display aspect ratio : 1.85:1
Frame rate mode : Constant
Frame rate : 23.976 fps
Color space : YUV
Chroma subsampling : 4:2:0
Bit depth : 8 bits
Scan type : Progressive
Bits/(Pixel*Frame) : 0.198
Stream size : 7.62 GiB (66%)
Writing library : x264 core 142 r2479 dd79a61
Encoding settings : cabac=1 / ref=4 / deblock=1:-3:-3 / analyse=0x3:0x133 / me=tesa / subme=11 / psy=1 / psy_rd=1.00:0.00 / mixed_ref=1 / me_range=32 / chroma_me=1 / trellis=2 / 8x8dct=1 / cqm=0 / deadzone=21,11 / fast_pskip=0 / chroma_qp_offset=-2 / threads=12 / lookahead_threads=3 / sliced_threads=0 / nr=0 / decimate=0 / interlaced=0 / bluray_compat=0 / constrained_intra=0 / bframes=10 / b_pyramid=2 / b_adapt=2 / b_bias=0 / direct=3 / weightb=1 / open_gop=0 / weightp=2 / keyint=240 / keyint_min=23 / scenecut=40 / intra_refresh=0 / rc=2pass / mbtree=0 / bitrate=9503 / ratetol=1.0 / qcomp=0.60 / qpmin=0 / qpmax=69 / qpstep=4 / cplxblur=20.0 / qblur=0.5 / ip_ratio=1.40 / pb_ratio=1.30 / aq=1:1.00
Language : English
Default : Yes
Forced : No

Audio #1
ID : 2
Format : AC-3
Format/Info : Audio Coding 3
Mode extension : CM (complete main)
Format settings, Endianness : Big
Codec ID : A_AC3
Duration : 1h 58mn
Bit rate mode : Constant
Bit rate : 640 Kbps
Channel(s) : 6 channels
Channel positions : Front: L C R, Side: L R, LFE
Sampling rate : 48.0 KHz
Bit depth : 16 bits
Compression mode : Lossy
Stream size : 542 MiB (5%)
Title : Дубляж, Blu-ray CEE
Language : Russian
Default : Yes
Forced : No

Audio #2
ID : 3
Format : AC-3
Format/Info : Audio Coding 3
Mode extension : CM (complete main)
Format settings, Endianness : Big
Codec ID : A_AC3
Duration : 1h 58mn
Bit rate mode : Constant
Bit rate : 640 Kbps
Channel(s) : 6 channels
Channel positions : Front: L C R, Side: L R, LFE
Sampling rate : 48.0 KHz
Bit depth : 16 bits
Compression mode : Lossy
Stream size : 542 MiB (5%)
Title : Двухголосый, П. Гланц + Е. Лютая
Language : Russian
Default : No
Forced : No

Audio #3
ID : 4
Format : AC-3
Format/Info : Audio Coding 3
Mode extension : CM (complete main)
Format settings, Endianness : Big
Codec ID : A_AC3
Duration : 1h 58mn
Bit rate mode : Constant
Bit rate : 640 Kbps
Channel(s) : 6 channels
Channel positions : Front: L C R, Side: L R, LFE
Sampling rate : 48.0 KHz
Bit depth : 16 bits
Compression mode : Lossy
Stream size : 542 MiB (5%)
Title : Двухголосый, И. Тарадайкин + Л. Германова [Премьер-видео]
Language : Russian
Default : No
Forced : No

Audio #4
ID : 5
Format : AC-3
Format/Info : Audio Coding 3
Mode extension : CM (complete main)
Format settings, Endianness : Big
Codec ID : A_AC3
Duration : 1h 58mn
Bit rate mode : Constant
Bit rate : 640 Kbps
Channel(s) : 6 channels
Channel positions : Front: L C R, Side: L R, LFE
Sampling rate : 48.0 KHz
Bit depth : 16 bits
Compression mode : Lossy
Stream size : 542 MiB (5%)
Title : Авторский, А. Гаврилов
Language : Russian
Default : No
Forced : No

Audio #5
ID : 6
Format : AC-3
Format/Info : Audio Coding 3
Mode extension : CM (complete main)
Format settings, Endianness : Big
Codec ID : A_AC3
Duration : 1h 58mn
Bit rate mode : Constant
Bit rate : 640 Kbps
Channel(s) : 6 channels
Channel positions : Front: L C R, Side: L R, LFE
Sampling rate : 48.0 KHz
Bit depth : 16 bits
Compression mode : Lossy
Stream size : 542 MiB (5%)
Title : Авторский, А. Михалёв
Language : Russian
Default : No
Forced : No

Audio #6
ID : 7
Format : AC-3
Format/Info : Audio Coding 3
Mode extension : CM (complete main)
Format settings, Endianness : Big
Codec ID : A_AC3
Duration : 1h 58mn
Bit rate mode : Constant
Bit rate : 640 Kbps
Channel(s) : 6 channels
Channel positions : Front: L C R, Side: L R, LFE
Sampling rate : 48.0 KHz
Bit depth : 16 bits
Compression mode : Lossy
Stream size : 542 MiB (5%)
Title : Авторский, В. Горчаков
Language : Russian
Default : No
Forced : No

Audio #7
ID : 8
Format : AC-3
Format/Info : Audio Coding 3
Mode extension : CM (complete main)
Format settings, Endianness : Big
Codec ID : A_AC3
Duration : 1h 58mn
Bit rate mode : Constant
Bit rate : 640 Kbps
Channel(s) : 6 channels
Channel positions : Front: L C R, Side: L R, LFE
Sampling rate : 48.0 KHz
Bit depth : 16 bits
Compression mode : Lossy
Stream size : 542 MiB (5%)
Title : Оригинал, Английский
Language : English
Default : No
Forced : No

Text #1
ID : 9
Format : UTF-8
Codec ID : S_TEXT/UTF8
Codec ID/Info : UTF-8 Plain Text
Language : Russian
Default : No
Forced : No

Text #2
ID : 10
Format : UTF-8
Codec ID : S_TEXT/UTF8
Codec ID/Info : UTF-8 Plain Text
Language : English
Default : No
Forced : No

Menu
00:00:00.000 : en:01. Back Again
00:02:50.336 : en:02. Main Titles
00:05:01.134 : en:03. A Letter From Doc
00:12:42.011 : en:04. Doc's Destiny
00:15:49.365 : en:05. Back to 1885
00:22:15.208 : en:06. Clint Eastwood?
00:30:03.593 : en:07. Mad Dog
00:33:16.119 : en:08. Reunited
00:37:44.679 : en:09. Out of Gas
00:41:54.303 : en:10. Clara
00:50:43.331 : en:11. The Town Festival
00:56:58.665 : en:12. Trouble With Tannen
01:06:25.439 : en:13. The Course of the Future
01:16:23.078 : en:14. Late for a Train
01:20:44.840 : en:15. Showdown
01:30:33.678 : en:16. Racing Against Time
01:42:19.758 : en:17. Back to Normal
01:46:07.235 : en:18. Marty's Choice
01:48:07.939 : en:19. Meet the Family
01:51:52.831 : en:20. End Titles



   Похожие торренты   Торрент   Размер 
В этой теме нет новых непрочитанных сообщений. Назад в будущее: Трилогия / Back to the Future Trilogy (1985-1990) BDRip 1080p | 60 fps | D

226 | 98

45.89 ГБ

В этой теме нет новых непрочитанных сообщений. Назад в будущее: Трилогия / Back to the Future: Trilogy (1985/1989/1990) BDRip 1080p

143 | 24

23.28 ГБ

В этой теме нет новых непрочитанных сообщений. Назад в будущее: Трилогия / Back to the Future: Trilogy (1985-1990) Blu-Ray CEE (1080p) - HDClub

23 | 10

120.07 ГБ

В этой теме нет новых непрочитанных сообщений. Назад в будущее: Трилогия / Back to the Future: Trilogy (1985/1989/1990) BD Remux 1080p

5 | 6

66.11 ГБ

В этой теме нет новых непрочитанных сообщений. Назад в будущее: Трилогия / Back to the Future: Trilogy (1985-1990) BDRip-AVC | D, P, A

205 | 31

6.66 ГБ

В этой теме нет новых непрочитанных сообщений. Назад в будущее: Трилогия / Back to the Future: Trilogy (1985-1990) BDRip 720p

174 | 22

18.22 ГБ

В этой теме нет новых непрочитанных сообщений. Назад в будущее: Трилогия / Back to the Future: Trilogy (1985-1990) BDRip 720p

12 | 30

30.74 ГБ




Вы не можете начинать темы
Вы не можете отвечать на сообщения
Вы не можете редактировать свои сообщения
Вы не можете удалять свои сообщения
Вы не можете добавлять вложения

Перейти:  
Для Мосгорсуда, Роскомнадзора и рекламодателей: mosgorsud-torrent[собачка]yandex.ru
 Вход
ppkBB3cker v.2 © 2008-2014 @ PPK
[ Time : 0.060s | 18 Queries | GZIP : Off ]

cron