img image001 image001 image001 image001 image001 image001 image001 image001 image001 image001 image001 image001 image001 image001 image001

Planets Sun Sun Sun
Статистика раздачи
Автор: Снежана | Размер: 4.34 ГБ | Добавлен: 21 июл 2013
Раздают: 7    Качают: 4
Скачать торрент
Скачать торрент
Описание торрента

СообщениеДобавлено: 21 июл 2013 

#77

Страна: США
Жанр: фэнтези, боевик, драма, приключения
Год выпуска: 2011
Продолжительность: 01:54:50
Перевод: Профессиональный (дублированный)
Cубтитры: русские , английские
Оригинальная аудиодорожка: английская
Режиссер: Кеннет Брэна / Kenneth Branagh
В ролях: Натали Портман, Энтони Хопкинс, Крис Хемсворт, Том Хиддлстон, Стеллан Скарсгард, Кэт Деннингс, Кларк Грегг, Идрис Эльба, Колм Фиор, Рэй Стивенсон

Описание:

Эпическое приключение происходит как на нашей планете Земля, так и в вымышленном королевстве богов Асгарде. В центре истории — Могучий Тор, сильный, но высокомерный воин, чьи безрассудные поступки возрождают древнюю войну в Асгарде. Тора отправляют в ссылку на Землю, лишают сил и заставляют жить среди обычных людей в качестве наказания. Тор узнает, сколько требуется сил, чтобы стать настоящим героем, когда самый опасный злодей его мира направляет темные силы поглотить Землю



Видео, аудио и субтитры взяты из Blu-ray с другого трекера, аналогичный этому. Видео сжималось Canopus ProCoder в 2 прохода. Меню взято из DVD с иностранного трекера. Релиз сделан по мануалу Mikky72 при поддержке ZVNV и AlexD555. Большое спасибо этим людям. Автор рипа TEPM1HAT0P/ Советую записывать диски программой ImgBurn.


Меню: Меню анимированное, озвученное, на английском языке, с навигацией по эпизодам.

Раздача от группы:

Тип релиза: DVD5 (Custom)
Контейнер: DVD-Video
Видео кодек: MPEG2
Аудио кодек: AC3
Видео: NTSC 720х480 (16:9) VBR
Аудио: Профессиональный (дублированный) (Dolby AC3, 6 ch, 448 Kbps)
Аудио 2: Английский (Dolby AC3, 6 ch, 448 Kbps)

Общее
Полное имя : D:фильмыТор DVD5VIDEO_TSVTS_01_1.VOB
Формат : MPEG-PS
Размер файла : 1024 Мбайт
Продолжительность : 29 м.
Общий поток : 4798 Кбит/сек
Видео
Идентификатор : 224 (0xE0)
Формат : MPEG Video
Версия формата : Version 2
Профиль формата : [email protected]
Параметр BVOP формата : Да
Параметр матрицы формата : Выборочная
Продолжительность : 29 м.
Вид битрейта : Переменный
Битрейт : 3806 Кбит/сек
Максимальный битрейт : 8800 Кбит/сек
Ширина : 720 пикселей
Высота : 480 пикселей
Соотношение сторон : 16:9
Частота кадров : 23,976 кадра/сек
Стандарт вещания : NTSC
Цветовое пространство : YUV
Субдискретизация насыщенности : 4:2:0
Битовая глубина : 8 бит
Тип развёртки : Прогрессивная
Порядок развёртки : 2:3 Pulldown
Метод сжатия : С потерями
Бит/(Пиксели*Кадры) : 0.459
Размер потока : 812 Мбайт (79%)
Аудио #1
Идентификатор : 189 (0xBD)-128 (0x80)
Формат : AC-3
Формат/Информация : Audio Coding 3
Расширение режима : CM (complete main)
Режим смешивания : DVD-Video
Продолжительность : 29 м.
Вид битрейта : Постоянный
Битрейт : 448 Кбит/сек
Каналы : 6 каналов
Расположение каналов : Front: L C R, Side: L R, LFE
Частота : 48,0 КГц
Битовая глубина : 16 бит
Метод сжатия : С потерями
Размер потока : 95,6 Мбайт (9%)
Аудио #2
Идентификатор : 189 (0xBD)-129 (0x81)
Формат : AC-3
Формат/Информация : Audio Coding 3
Расширение режима : CM (complete main)
Режим смешивания : DVD-Video
Продолжительность : 29 м.
Вид битрейта : Постоянный
Битрейт : 448 Кбит/сек
Каналы : 6 каналов
Расположение каналов : Front: L C R, Side: L R, LFE
Частота : 48,0 КГц
Битовая глубина : 16 бит
Метод сжатия : С потерями
Размер потока : 95,6 Мбайт (9%)


видео
Canopus Procoder - конвертация видео
AviSynth 2.5 - обработка видео
DGIndexNV - индексирование
програмы для разборки/сборки ДВД
PgcDemux - разборка DVD на потоки
tsMuxeR - разборка BD на потоки
MuxMan - сборка потоков в DVD
работа со звуком
DelayCut - синхронизация звука
Tranzcode - разборка оригинальной дорожки
Vegas Pro 10 - сборка АС3 дорожки
работа с субтитрами
SUPread - сохранение субтитров в BMP
ABBYY FineReader 10 - распознание графических субтитров
Forced Subs Creator - сборка субтитров в srt
Subtitle Workshop - сохранение в SSA формат
MaestroSBT - рендеринг субтитров в формат SST+BMP
DVDSubEdit - корректировка таймингов и цветокоррекция субтитров
работа с меню и реавторинг
DVDReMakePro - реавторинг диска
Adobe Photoshop - графическое редактирование меню







   Похожие торренты   Торрент   Размер 
В этой теме нет новых непрочитанных сообщений. Артур. Идеальный миллионер / Arthur (2011) DVD5 | custom

1 | 1

4.36 ГБ

В этой теме нет новых непрочитанных сообщений. Тор 2: Царство тьмы / Thor: The Dark World (2013) DVD5

90 | 33

4.37 ГБ

В этой теме нет новых непрочитанных сообщений. Изо всех сил / Over the Top (1987) DVD5 | custom

2 | 1

4.37 ГБ

В этой теме нет новых непрочитанных сообщений. Тор-король Асгарда / Mighty Thor [1-4 из 8] (1966) DVD5 от New-Team | P2 | Лицензия

23 | 14

2.38 ГБ

В этой теме нет новых непрочитанных сообщений. Служанка / La Bonne (1986) DVD5 | Custom | L1

52 | 16

3.08 ГБ

В этой теме нет новых непрочитанных сообщений. Игра на выбывание [01-08 из 08] (2004) 2*DVD5 | custom

3 | 2

8.7 ГБ

В этой теме нет новых непрочитанных сообщений. Императорский кот / Majesty cat (1975) DVD5 | Custom | L1

1 | 5

4.07 ГБ




Вы не можете начинать темы
Вы не можете отвечать на сообщения
Вы не можете редактировать свои сообщения
Вы не можете удалять свои сообщения
Вы не можете добавлять вложения

Перейти:  
Для Мосгорсуда, Роскомнадзора и рекламодателей: mosgorsud-torrent[собачка]yandex.ru
 Вход
ppkBB3cker v.2 © 2008-2014 @ PPK
[ Time : 0.052s | 18 Queries | GZIP : Off ]

cron