img image001 image001 image001 image001 image001 image001 image001 image001 image001 image001 image001 image001 image001 image001 image001

Planets Sun Sun Sun
Статистика раздачи
Автор: Nickolas3434 | Размер: 4.3 ГБ | Добавлен: 03 фев 2015
Раздают: 39    Качают: 11
Скачать торрент
Скачать торрент
Описание торрента

СообщениеДобавлено: 03 фев 2015 

Информация о фильме
Название: Козырные тузы
Оригинальное название: Smokin' Aces
Год выхода: 2006
Жанр: боевик, триллер, драма, криминал
Режиссер: Джо Карнахан / Joe Carnahan
В ролях: Райан Рейнольдс (Richard Messner), Рэй Лиотта (Donald Carruthers), Джозеф Рускин (Primo Sparazza), Алекс Рокко (Serna), Уэйн Ньютон (играет самого себя), Джереми Пивен (Buddy Israel), Бен Аффлек (Jack Dupree), Питер Берг ("Pistol" Pete Deeks), Мартин Хендерсон (Hollis Elmore), Коммон (Sir Ivy), Кристофер Майкл Холли (Beanie), Энди Гарсиа (Stanley Locke)
О фильме:
Бывший протеже гангстерского босса, успешный сценичный фокусник, решает выступить в суде со свидетельствами против своих бывших друзей. За его голову гангстерами назначена награда в 1 миллион долларов. ФБР всячески пытается укрыть его до суда, но он периодически упорно появляется на людях, привлекая, словно свет в ночи, десятки наемных убийц.

Страна: Великобритания, Франция, США
Студия: Студия-изготовитель, если известна
Продолжительность: 01:48:47
Перевод: Авторский (М. Яроцкий), Профессиональный (полное дублирование)
Рип by E1ikSir (Just_TeMa)
Качество: BDRip-AVC (BDRemux)
Формат: MKV
Аудио кодек: AC3
Видео кодек: AVC
Видео: (English) AVC, 1120x476 (2,35:1), 23.976 fps, 4304 Kbps, 0.328 bit/pixel
Аудио #1: (Russian) AC3, 48 kHz, 6 ch, 448 Kbps | AVO
Аудио #2: (Russian) AC3, 48 kHz, 6 ch, 448 Kbps | Dub
Аудио #3: (English) AC3, 48 kHz, 6 ch, 448 Kbps | Original
---[Information] [16.01.2015 9:26:56] x264 [info]: frame I:1180 Avg QP:17.91 size: 79940
---[Information] [16.01.2015 9:26:56] x264 [info]: frame P:34007 Avg QP:19.32 size: 35588
---[Information] [16.01.2015 9:26:56] x264 [info]: frame B:121319 Avg QP:20.33 size: 18198
---[Information] [16.01.2015 9:26:56] x264 [info]: consecutive B-frames: 1.9% 2.1% 4.9% 30.6% 14.9% 38.6% 3.0% 2.4% 0.6% 0.5% 0.1% 0.1% 0.0% 0.0% 0.1% 0.1% 0.2%
---[Information] [16.01.2015 9:26:56] x264 [info]: mb I I16..4: 5.5% 77.7% 16.8%
---[Information] [16.01.2015 9:26:56] x264 [info]: mb P I16..4: 1.4% 20.5% 1.6% P16..4: 24.7% 30.0% 12.7% 1.7% 0.1% skip: 7.3%
---[Information] [16.01.2015 9:26:56] x264 [info]: mb B I16..4: 0.2% 3.7% 0.2% B16..8: 35.5% 22.6% 4.9% direct: 8.3% skip:24.6% L0:41.7% L1:43.6% BI:14.7%
---[Information] [16.01.2015 9:26:56] x264 [info]: 8x8 transform intra:87.6% inter:59.3%
---[Information] [16.01.2015 9:26:56] x264 [info]: direct mvs spatial:100.0% temporal:0.0%
---[Information] [16.01.2015 9:26:56] x264 [info]: coded y,uvDC,uvAC intra: 90.5% 90.8% 81.4% inter: 36.6% 30.3% 12.0%
---[Information] [16.01.2015 9:26:56] x264 [info]: i16 v,h,dc,p: 70% 10% 5% 15%
---[Information] [16.01.2015 9:26:56] x264 [info]: i8 v,h,dc,ddl,ddr,vr,hd,vl,hu: 8% 6% 14% 10% 13% 12% 12% 11% 12%
---[Information] [16.01.2015 9:26:56] x264 [info]: i4 v,h,dc,ddl,ddr,vr,hd,vl,hu: 13% 7% 8% 9% 14% 14% 12% 11% 12%
---[Information] [16.01.2015 9:26:56] x264 [info]: i8c dc,h,v,p: 50% 18% 14% 18%
---[Information] [16.01.2015 9:26:56] x264 [info]: Weighted P-Frames: Y:3.8% UV:2.6%
---[Information] [16.01.2015 9:26:56] x264 [info]: ref P L0: 44.2% 10.6% 17.8% 6.4% 5.1% 3.6% 3.1% 1.7% 1.5% 1.3% 1.2% 1.0% 0.9% 0.8% 0.8% 0.1%
---[Information] [16.01.2015 9:26:56] x264 [info]: ref B L0: 76.7% 10.2% 4.5% 2.3% 1.6% 1.2% 1.0% 0.6% 0.5% 0.4% 0.4% 0.3% 0.2% 0.1%
---[Information] [16.01.2015 9:26:56] x264 [info]: ref B L1: 94.1% 5.9%
---[Information] [16.01.2015 9:26:56] x264 [info]: kb/s:4304.60
---[Information] [16.01.2015 9:26:56] encoded 156506 frames, 6.36 fps, 4304.60 kb/s, duration 6:50:05.48

General
Unique ID : 229693435141685913620424565140874421458 (0xACCD58B2B504E319A3558F57B9A564D2)
Complete name : D:VideoКозырные тузы [Smokin' Aces] '06 [Just_TeMa].mkv
Format : Matroska
Format version : Version 4 / Version 2
File size : 4.30 GiB
Duration : 1h 48mn
Overall bit rate : 5 653 Kbps
Movie name : Козырные тузы / Smokin' Aces (Джо Карнахан / Joe Carnahan) 2006
Encoded date : UTC 2015-02-01 23:39:35
Writing application : mkvmerge v6.9.1 ('Blue Panther') 32bit built on Apr 18 2014 18:15:44
Writing library : libebml v1.3.0 + libmatroska v1.4.1
Attachements : Cover.png
Video
ID : 1
Format : AVC
Format/Info : Advanced Video Codec
Format profile : [email protected]
Format settings, CABAC : Yes
Format settings, ReFrames : 15 frames
Codec ID : V_MPEG4/ISO/AVC
Duration : 1h 48mn
Bit rate : 4 196 Kbps
Width : 1 120 pixels
Height : 476 pixels
Display aspect ratio : 2.35:1
Frame rate mode : Constant
Frame rate : 23.976 fps
Color space : YUV
Chroma subsampling : 4:2:0
Bit depth : 8 bits
Scan type : Progressive
Bits/(Pixel*Frame) : 0.328
Stream size : 3.19 GiB (74%)
Title : by Just_TeMa (source BDRemux)
Writing library : x264 core 144 r2525kMod 40bb568
Encoding settings : cabac=1 / ref=15 / deblock=1:-3:-3 / analyse=0x3:0x133 / me=umh / subme=11 / psy=1 / fade_compensate=0.00 / psy_rd=0.98:0.01 / mixed_ref=1 / me_range=48 / chroma_me=1 / trellis=2 / 8x8dct=1 / cqm=0 / deadzone=21,11 / fast_pskip=1 / chroma_qp_offset=-3 / threads=6 / lookahead_threads=1 / sliced_threads=0 / nr=0 / decimate=1 / interlaced=0 / bluray_compat=0 / constrained_intra=0 / fgo=0 / bframes=16 / b_pyramid=2 / b_adapt=2 / b_bias=0 / direct=3 / weightb=1 / open_gop=0 / weightp=2 / keyint=240 / keyint_min=24 / scenecut=40 / intra_refresh=0 / rc_lookahead=40 / rc=crf / mbtree=0 / crf=18.7500 / qcomp=0.60 / qpmin=0 / qpmax=69 / qpstep=4 / vbv_maxrate=62500 / vbv_bufsize=50000 / crf_max=0.0 / nal_hrd=none / filler=0 / ip_ratio=1.28 / pb_ratio=1.17 / aq=3:1.00 / zones=150226,156505,q=30
Language : English
Default : Yes
Forced : No
Color primaries : BT.709
Transfer characteristics : BT.709
Matrix coefficients : BT.709
Color range : Limited
Audio #1
ID : 2
Format : AC-3
Format/Info : Audio Coding 3
Mode extension : CM (complete main)
Format settings, Endianness : Big
Codec ID : A_AC3
Duration : 1h 48mn
Bit rate mode : Constant
Bit rate : 448 Kbps
Channel(s) : 6 channels
Channel positions : Front: L C R, Side: L R, LFE
Sampling rate : 48.0 KHz
Bit depth : 16 bits
Compression mode : Lossy
Stream size : 349 MiB (8%)
Title : VO (М. Яроцкий aka Kyberpunk)
Language : Russian
Default : Yes
Forced : No
Audio #2
ID : 3
Format : AC-3
Format/Info : Audio Coding 3
Mode extension : CM (complete main)
Format settings, Endianness : Big
Codec ID : A_AC3
Duration : 1h 48mn
Bit rate mode : Constant
Bit rate : 448 Kbps
Channel(s) : 6 channels
Channel positions : Front: L C R, Side: L R, LFE
Sampling rate : 48.0 KHz
Bit depth : 16 bits
Compression mode : Lossy
Stream size : 349 MiB (8%)
Title : Dub
Language : Russian
Default : No
Forced : No
Audio #3
ID : 4
Format : AC-3
Format/Info : Audio Coding 3
Mode extension : CM (complete main)
Format settings, Endianness : Big
Codec ID : A_AC3
Duration : 1h 48mn
Bit rate mode : Constant
Bit rate : 448 Kbps
Channel(s) : 6 channels
Channel positions : Front: L C R, Side: L R, LFE
Sampling rate : 48.0 KHz
Bit depth : 16 bits
Compression mode : Lossy
Stream size : 349 MiB (8%)
Title : Original
Language : English
Default : No
Forced : No
Text #1
ID : 5
Format : UTF-8
Codec ID : S_TEXT/UTF8
Codec ID/Info : UTF-8 Plain Text
Title : forced
Language : Russian
Default : Yes
Forced : No
Text #2
ID : 6
Format : UTF-8
Codec ID : S_TEXT/UTF8
Codec ID/Info : UTF-8 Plain Text
Title : Full
Language : Russian
Default : No
Forced : No
Text #3
ID : 7
Format : UTF-8
Codec ID : S_TEXT/UTF8
Codec ID/Info : UTF-8 Plain Text
Title : Commentary
Language : Russian
Default : No
Forced : No
Text #4
ID : 8
Format : UTF-8
Codec ID : S_TEXT/UTF8
Codec ID/Info : UTF-8 Plain Text
Title : Full
Language : Ukrainian
Default : No
Forced : No
Text #5
ID : 9
Format : UTF-8
Codec ID : S_TEXT/UTF8
Codec ID/Info : UTF-8 Plain Text
Title : Full
Language : English
Default : No
Forced : No
Text #6
ID : 10
Format : UTF-8
Codec ID : S_TEXT/UTF8
Codec ID/Info : UTF-8 Plain Text
Title : Commentary
Language : English
Default : No
Forced : No
Menu
00:00:00.000 : en:1. Most Wanted
00:05:43.301 : en:2. Showman of the Year
00:11:14.799 : en:3. Meet the Players
00:18:20.182 : en:4. What's The Plan?
00:25:49.547 : en:5. Under Negotiation
00:30:19.776 : en:6. Wrong Place, Wrong Time
00:35:39.137 : en:7. Checkmate
00:40:19.250 : en:8. Mama's Got Your Back
00:48:22.608 : en:9. Loyal and Devout
00:55:46.134 : en:10. Recovered
00:59:58.845 : en:11. Elevator Exchange
01:04:17.937 : en:12. The Last Chip
01:10:15.878 : en:13. Deal Revoked
01:14:52.362 : en:14. Bring It!
01:22:16.765 : en:15. Accounted For
01:24:53.630 : en:16. The Aftermath
01:28:15.622 : en:17. Beat Out
01:31:14.677 : en:18. Betrayed
01:39:25.584 : en:19. Pulling the Plug
01:42:18.006 : en:20. End Titles

Encode

Source




   Похожие торренты   Торрент   Размер 
В этой теме нет новых непрочитанных сообщений. Козырные тузы / Smokin' Aces (2006) BDRip-AVC от Rulya74

104 | 7

2.18 ГБ

В этой теме нет новых непрочитанных сообщений. Козырные тузы / Smokin' Aces (2006) BDRip от HQCLUB

15 | 4

2.18 ГБ

В этой теме нет новых непрочитанных сообщений. Козырные тузы / Smokin' Aces (2006) BDRip от HELLYWOOD

79 | 8

2.18 ГБ

В этой теме нет новых непрочитанных сообщений. Козырные тузы / Smokin' Aces (2006) BDRip 1080p

127 | 14

7.94 ГБ

В этой теме нет новых непрочитанных сообщений. Козырные тузы / Smokin' Aces (2006) BDRip-AVC от leonardo 59

141 | 6

2.3 ГБ

В этой теме нет новых непрочитанных сообщений. Козырные тузы / Smokin' Aces (2006) BDRip 1080p от Neofilm

238 | 9

4.37 ГБ

В этой теме нет новых непрочитанных сообщений. Козырные тузы / Smokin' Aces (2006) BDRip 720p от leonardo 59

36 | 6

4.38 ГБ




Вы не можете начинать темы
Вы не можете отвечать на сообщения
Вы не можете редактировать свои сообщения
Вы не можете удалять свои сообщения
Вы не можете добавлять вложения

Перейти:  
Для Мосгорсуда, Роскомнадзора и рекламодателей: mosgorsud-torrent[собачка]yandex.ru
 Вход
ppkBB3cker v.2 © 2008-2014 @ PPK
[ Time : 0.064s | 19 Queries | GZIP : Off ]

cron