img image001 image001 image001 image001 image001 image001 image001 image001 image001 image001 image001 image001 image001 image001 image001

Planets Sun Sun Sun
Статистика раздачи
Автор: Nickolas3434 | Размер: 2.19 ГБ | Добавлен: 22 окт 2015
Раздают: 136    Качают: 13
Скачать торрент
Скачать торрент
Описание торрента

СообщениеДобавлено: 22 окт 2015 

Звонок 2 / The Ring Two (2005) HDRip


Производство: США / DreamWorks SKG, BenderSpink, Parkes+MacDonald Image Nation
Жанр: Ужасы
Режиссер: Хидео Наката
Актеры: Наоми Уоттс, Саймон Бейкер, Дэвид Дорфман, Элизабет Перкинс, Гэри Коул, Сисси Спейсек, Райан Мерриман, Эмили ВанКэмп, Келли Овертон, Джеймс Лежер
Описание:
Чтобы избавиться от кошмарных воспоминаний и начать новую жизнь, Рейчел с сыном переезжают в маленький городок в штате Орегон. Но, когда совершается убийство и на месте преступления обнаруживают загадочную, неподписанную видеокассету, Рейчел понимает, что мстительная Самара вернулась и решительнее, чем прежде намерена продолжить свой безжалостный террор. В отчаянной борьбе за жизнь, свою и сына, Рейчел вновь должна противостоять Самаре.

Дата мировой премьеры: 17 марта 2005
Дата премьеры в России: 7 апреля 2005, «UIP»
Дата выхода DVD/Blu-ray релиза: 29 марта 2011, «Флагман-Трейд»
Релиз от: FAGOT100 (NNM-CLUB)
Продолжительность: 01:44:31
Качество видео: HDRip-AVC
Перевод: Дублированный
Язык субтитров: Английский
Вид субтитров: Вшитые, отключаемые
Видео: AVC, 1024x576 (16:9), 25.000 fps, 2 164 Kbps (0.147 bit/pixel)
Аудио #1: AC-3, 48.0 KHz, 6 ch, 384 Kbps, CBR (Russian)
Аудио #2: AC-3, 48.0 KHz, 6 ch, 448 Kbps, CBR (English)
Скриншоты:

[code]
Формат : Matroska
Версия формата : Version 2
Размер файла : 2,19 Гбайт
Продолжительность : 1 ч. 44 м.
Общий поток : 2988 Кбит/сек
Дата кодирования : UTC 2015-10-20 19:24:44
Программа кодирования : mkvmerge v5.3.0 ('I could have danced') built on Feb 9 2012 10:38:07
Библиотека кодирования : Lavf56.25.101
Обложка : Cover
ENCODING_INFO : MATROSKA,WEBM > MKV 576p / H264 > X264 VBR-2P 2164kbps Custom / AC3 > COPY / AC3 > COPY
Видео
Идентификатор : 1
Формат : AVC
Формат/Информация : Advanced Video Codec
Профиль формата : [email protected]
Параметр CABAC формата : Да
Параметр ReFrames формата : 9 кадров
Идентификатор кодека : V_MPEG4/ISO/AVC
Продолжительность : 1 ч. 44 м.
Битрейт : 2164 Кбит/сек
Ширина : 1024 пикселя
Высота : 576 пикселей
Соотношение сторон : 16:9
Режим частоты кадров : Постоянный
Частота кадров : 25,000 кадров/сек
Цветовое пространство : YUV
Субдискретизация насыщенности : 4:2:0
Битовая глубина : 8 бит
Тип развёртки : Прогрессивная
Бит/(Пиксели*Кадры) : 0.147
Размер потока : 1,54 Гбайт (70%)
Библиотека кодирования : x264 core 148 r2597M e86f3a1
Настройки программы : cabac=1 / ref=9 / deblock=1:-2:-2 / analyse=0x3:0x133 / me=umh / subme=9 / psy=1 / psy_rd=1.00:0.00 / mixed_ref=1 / me_range=32 / chroma_me=1 / trellis=1 / 8x8dct=1 / cqm=0 / deadzone=21,11 / fast_pskip=0 / chroma_qp_offset=-2 / threads=12 / lookahead_threads=2 / sliced_threads=0 / nr=0 / decimate=0 / interlaced=0 / bluray_compat=0 / constrained_intra=0 / bframes=8 / b_pyramid=2 / b_adapt=2 / b_bias=0 / direct=3 / weightb=1 / open_gop=0 / weightp=2 / keyint=250 / keyint_min=23 / scenecut=40 / intra_refresh=0 / rc=2pass / mbtree=0 / bitrate=2164 / ratetol=1.0 / qcomp=0.60 / qpmin=0 / qpmax=69 / qpstep=4 / cplxblur=20.0 / qblur=0.5 / ip_ratio=1.40 / pb_ratio=1.30 / aq=1:1.00
Язык : English
Default : Да
Forced : Нет
Аудио #1
Идентификатор : 2
Формат : AC-3
Формат/Информация : Audio Coding 3
Расширение режима : CM (complete main)
Параметр Endianness формата : Big
Идентификатор кодека : A_AC3
Продолжительность : 1 ч. 44 м.
Вид битрейта : Постоянный
Битрейт : 384 Кбит/сек
Каналы : 6 каналов
Расположение каналов : Front: L C R, Side: L R, LFE
Частота : 48,0 КГц
Битовая глубина : 16 бит
Метод сжатия : С потерями
Размер потока : 288 Мбайт (13%)
Заголовок : Дубляж
Язык : Russian
Default : Да
Forced : Нет
Аудио #2
Идентификатор : 3
Формат : AC-3
Формат/Информация : Audio Coding 3
Расширение режима : CM (complete main)
Параметр Endianness формата : Big
Идентификатор кодека : A_AC3
Продолжительность : 1 ч. 44 м.
Вид битрейта : Постоянный
Битрейт : 448 Кбит/сек
Каналы : 6 каналов
Расположение каналов : Front: L C R, Side: L R, LFE
Частота : 48,0 КГц
Битовая глубина : 16 бит
Метод сжатия : С потерями
Размер потока : 336 Мбайт (15%)
Заголовок : English
Язык : English
Default : Нет
Forced : Нет
Текст
Идентификатор : 4
Формат : UTF-8
Идентификатор кодека : S_TEXT/UTF8
Идентификатор кодека/Информация : UTF-8 Plain Text
Язык : English
Default : Нет
Forced : Нет
Меню
00:00:00.000 : :Глава 1
00:08:13.828 : :Глава 2
00:18:05.319 : :Глава 3
00:30:36.027 : :Глава 4
00:40:05.829 : :Глава 5
00:51:42.254 : :Глава 6
01:02:15.367 : :Глава 7
01:13:26.467 : :Глава 8
01:23:59.580 : :Глава 9
01:32:13.408 : :Глава 10
01:38:33.276 : :Глава 11
01:44:27.819 : :Глава 12



   Похожие торренты   Торрент   Размер 
В этой теме нет новых непрочитанных сообщений. Звонок, Звонок 2 / The Ring, The Ring Two (2002, 2005) D-TheaterRip - HDTVRip 720p от NOLIMITS-TEAM

16 | 5

4.38 ГБ

В этой теме нет новых непрочитанных сообщений. Звонок 2 / The Ring Two (2005) HDRip от Scarabey | D

44 | 8

746.16 МБ

В этой теме нет новых непрочитанных сообщений. Звонок 2 / The Ring Two (2005) HDRip от Scarabey | D

509 | 21

1.45 ГБ

В этой теме нет новых непрочитанных сообщений. Звонок: Дилогия / The Ring: Dilogy (2002-2005) HDRip-AVC | D, P2, A

128 | 20

4.37 ГБ

В этой теме нет новых непрочитанных сообщений. OST. Звонок и Звонок 2 / The Ring & The Ring Two (2005) MP3

27 | 34

144.83 МБ

В этой теме нет новых непрочитанных сообщений. Звонок 2 / The Ring Two (2005) WEBRip-AVC | D

1 | 3

2.18 ГБ

В этой теме нет новых непрочитанных сообщений. Звонок 2 / The Ring Two (2005) HDTVRip-AVC | D

23 | 2

743.73 МБ




Вы не можете начинать темы
Вы не можете отвечать на сообщения
Вы не можете редактировать свои сообщения
Вы не можете удалять свои сообщения
Вы не можете добавлять вложения

Перейти:  
Для Мосгорсуда, Роскомнадзора и рекламодателей: mosgorsud-torrent[собачка]yandex.ru
 Вход
ppkBB3cker v.2 © 2008-2014 @ PPK
[ Time : 0.049s | 21 Queries | GZIP : Off ]

cron