img image001 image001 image001 image001 image001 image001 image001 image001 image001 image001 image001 image001 image001 image001 image001

Planets Sun Sun Sun
Статистика раздачи
Автор: Снежана | Размер: 4.36 ГБ | Добавлен: 21 июл 2013
Раздают: 3    Качают: 53
Скачать торрент
Скачать торрент
Описание торрента

СообщениеДобавлено: 21 июл 2013 

#77

Информация о фильме
Название: Отправь их в ад, Мэлоун!
Оригинальное название: Give 'em Hell, Malone
Год выхода: 2009
Жанр: боевик, триллер, криминал
Режиссер: Рассел Малкэй
В ролях: Томас Джейн, Винг Рэймс, Даг Хатчисон, Эльза Патаки, Лиленд Орсер, Френч Стюарт, Уильям Абади, Айлин Райан, Грегори Харрисон, Крис Йен...

О фильме:
Частный детектив Мэлоун расправляется направо и налево с гангстерам в стиле 70-х, стремясь сохранить некий важный секрет.



Страна: США, Spokane / Washington
Продолжительность: 01:36:28
Перевод: Профессиональный (многоголосый, закадровый)

Файл
Кодек: H264
Качество: BDRip 1080p
Видео: 1920x816, 6031 Kbps, 23.976 fps
Звук: 48 kHz, AC3, 6c, 448 kbps
Субтитры: Нет

Семпл



Общее
Формат : Matroska
Версия формата : Version 2
Размер файла : 4,36 Гбайт
Продолжительность : 1 ч. 36 м.
Общий поток : 6473 Кбит/сек
Название фильма : Give 'em Hell, Malone (2009) BDRip 1080p от Dimok
Дата кодирования : UTC 2012-01-11 09:52:30
Программа кодирования : mkvmerge v5.2.0 ('I can't explain') built on Dec 18 2011 18:12:03
Библиотека кодирования : libebml v1.2.3 + libmatroska v1.3.0

Видео
Идентификатор : 1
Формат : AVC
Формат/Информация : Advanced Video Codec
Профиль формата : [email protected]
Параметр CABAC формата : Да
Параметр ReFrames формата : 5 кадров
Идентификатор кодека : V_MPEG4/ISO/AVC
Продолжительность : 1 ч. 36 м.
Битрейт : 6031 Кбит/сек
Ширина : 1920 пикселей
Высота : 816 пикселей
Соотношение сторон : 2,35:1
Частота кадров : 23,976 кадра/сек
Цветовое пространство : YUV
Субдискретизация насыщенности : 4:2:0
Битовая глубина : 8 бит
Тип развёртки : Прогрессивная
Бит/(Пиксели*Кадры) : 0.161
Размер потока : 3,98 Гбайт (91%)
Библиотека кодирования : x264 core 92 r1510 33d382a
Настройки программы : cabac=1 / ref=5 / deblock=1:0:0 / analyse=0x3:0x133 / me=umh / subme=10 / psy=1 / psy_rd=1.00:0.10 / mixed_ref=1 / me_range=32 / chroma_me=1 / trellis=2 / 8x8dct=1 / cqm=0 / deadzone=21,11 / fast_pskip=0 / chroma_qp_offset=-3 / threads=6 / sliced_threads=0 / nr=0 / decimate=1 / interlaced=0 / constrained_intra=0 / bframes=6 / b_pyramid=2 / b_adapt=2 / b_bias=0 / direct=3 / wpredb=1 / wpredp=2 / keyint=240 / keyint_min=24 / scenecut=40 / intra_refresh=0 / rc_lookahead=60 / rc=2pass / mbtree=1 / bitrate=6031 / ratetol=1.0 / qcomp=0.60 / qpmin=10 / qpmax=51 / qpstep=4 / cplxblur=20.0 / qblur=0.5 / ip_ratio=1.40 / aq=1:1.00
Язык : English

Аудио
Идентификатор : 2
Формат : AC-3
Формат/Информация : Audio Coding 3
Расширение режима : CM (complete main)
Идентификатор кодека : A_AC3
Продолжительность : 1 ч. 36 м.
Вид битрейта : Постоянный
Битрейт : 448 Кбит/сек
Каналы : 6 каналов
Расположение каналов : Front: L C R, Side: L R, LFE
Частота : 48,0 КГц
Битовая глубина : 16 бит
Метод сжатия : С потерями
Размер потока : 309 Мбайт (7%)
Заголовок : Профессиональный (многоголосый, закадровый)
Язык : Russian



   Похожие торренты   Торрент   Размер 
В этой теме нет новых непрочитанных сообщений. Отправь их в ад, Мэлоун! / Отправь его в ад, Мэлоун / Give 'em Hell, Malone (2009) BDRip от HQCLUB | Лицензия

28 | 2

2.18 ГБ

В этой теме нет новых непрочитанных сообщений. Отправь их в ад, Мэлоун! / Give 'em Hell, Malone (2009) BDRip 1080p

0 | 1

9.95 ГБ

В этой теме нет новых непрочитанных сообщений. Отправь его в ад, Мэлоун / Give 'em Hell, Malone (2009) BDRip

7 | 1

1.46 ГБ

В этой теме нет новых непрочитанных сообщений. Отправь их в ад, Мэлоун! / Give 'em Hell, Malone (2009) BDRip-AVC от ExKinoRay | P

326 | 82

746.25 МБ

В этой теме нет новых непрочитанных сообщений. Отправь их в ад, Мэлоун! / Give 'em Hell, Malone (2009) BDRip 720p

0 | 1

4.87 ГБ

В этой теме нет новых непрочитанных сообщений. Отправь их в ад, Мэлоун! / Give 'em Hell, Malone (2009) BDRip от Rulya74

36 | 5

1.45 ГБ

В этой теме нет новых непрочитанных сообщений. Отправь их в ад, Мэлоун! / Give 'em Hell, Malone (2009) BDRip 720p от Torrent-Xzona

4 | 3

2.19 ГБ




Вы не можете начинать темы
Вы не можете отвечать на сообщения
Вы не можете редактировать свои сообщения
Вы не можете удалять свои сообщения
Вы не можете добавлять вложения

Перейти:  
Для Мосгорсуда, Роскомнадзора и рекламодателей: mosgorsud-torrent[собачка]yandex.ru
 Вход
ppkBB3cker v.2 © 2008-2014 @ PPK
[ Time : 0.040s | 20 Queries | GZIP : Off ]

cron