Freedom Road (1979)
Any Other Side (2012)
img image001 image001 image001 image001 image001 image001 image001 image001 image001 image001 image001 image001 image001 image001 image001 image001
Planets Sun Sun Sun
Статистика раздачи
Автор: Nickolas3434 | Размер: 3.97 ГБ | Добавлен: 17 май 2016
Раздают: 269    Качают: 12
Скачать торрент
Скачать торрент
Описание торрента

СообщениеДобавлено: 17 май 2016 

Информация о фильме
Название: Бегущий по лезвию
Оригинальное название: Blade Runner
Год выпуска: 1982
Страна: США, Гонконг, Великобритания
Жанр: фантастика, триллер, драма, мелодрама

Перевод: Дубляж; Профессиональный (многоголосый); Профессиональный (двухголосый); Авторский (одноголосый) [Матвеев Алексей (Doctor Joker)]
Субтитры: русские (Blu-ray CEE), русские (Tycoon), украинские (Blu-ray CEE), английские (SDH)
Продолжительность: 01:57:36

Режиссер: Ридли Скотт
В ролях: Харрисон Форд (Rick Deckard), Рутгер Хауэр (Roy Batty), Шон Янг (Rachael), Эдвард Джеймс Олмос (Gaff), М. Эммет Уолш (Bryant), Дэрил Ханна (Pris), Уильям Сэндерсон (J.F. Sebastian), Брайон Джеймс (Leon Kowalski), Джо Тёркел (Dr. Eldon Tyrell), Джоанна Кэссиди (Zhora), Джеймс Хонг (Hannibal Chew), Морган Полл (Holden)


Описание:
Отставной детектив Рик Декард вновь восстановлен в полиции Лос-Анджелеса для поиска возглавляемой Роем Батти группы киборгов, совершившей побег из космической колонии на Землю.
В полиции считают, что киборги пытаются встретиться с Эндолом Тайреллом, руководителем корпорации, ставящей эксперименты над кибернетическим интеллектом. Рик Декард получает задание выяснить мотивы действий киборгов, а затем уничтожить их.

Рейтинг:

MPAA: R - Лицам до 17 лет обязательно присутствие взрослого

Качество: BDRip-AVC
Формат: MKV
Видео: AVC, 1056x440 (2.40:1), 2586 kbps, 23,976 fps, 0,232 bpp
Аудио №1: русский / AC3 / 5.1 / 48 kHz / 448 kbps / 16 bit |Дубляж, Blu-ray CEE|
Аудио №2: русский / AC3 / 5.1 / 48 kHz / 448 kbps / 16 bit |MVO, Киномания|
Аудио №3: русский / AC3 / 5.1 / 48 kHz / 448 kbps / 16 bit |DVO, Tycoon-studio|
Аудио №4: русский / AC3 / 5.1 / 48 kHz / 448 kbps / 16 bit |AVO, А. Матвеев|
Аудио №5: английский / AC3 / 5.1 / 48 kHz / 448 kbps / 16 bit
Навигация по главам: есть
Семпл


Релиз от: by -Lexx-


General
Unique ID : 207470638517029195848266779461123633569 (0x9C15643B5133FCCA9FBC3D57F9C4F1A1)
Complete name : E:Blade.Runner.FC.1982.BDRip-AVC.by.R.G.Resident.mkv
Format : Matroska
Format version : Version 4 / Version 2
File size : 3.97 GiB
Duration : 1h 57mn
Overall bit rate : 4 827 Kbps
Movie name : Blade Runner (1982) BDRip-AVC by R.G. Resident
Encoded date : UTC 2016-05-17 04:33:57
Writing application : mkvmerge v9.1.0 ('Little Earthquakes') 64bit
Writing library : libebml v1.3.3 + libmatroska v1.4.4
DURATION : 01:57:36.864000000
NUMBER_OF_FRAMES : 220527
NUMBER_OF_BYTES : 395184384
_STATISTICS_WRITING_APP : mkvmerge v9.1.0 ('Little Earthquakes') 64bit
_STATISTICS_WRITING_DATE_UTC : 2016-05-17 04:33:57
_STATISTICS_TAGS : BPS DURATION NUMBER_OF_FRAMES NUMBER_OF_BYTES
Video
ID : 1
Format : AVC
Format/Info : Advanced Video Codec
Format profile : [email protected]
Format settings, CABAC : Yes
Format settings, ReFrames : 9 frames
Codec ID : V_MPEG4/ISO/AVC
Duration : 1h 57mn
Bit rate : 2 586 Kbps
Width : 1 056 pixels
Height : 440 pixels
Display aspect ratio : 2.40:1
Frame rate : 23.976 fps
Color space : YUV
Chroma subsampling : 4:2:0
Bit depth : 8 bits
Scan type : Progressive
Bits/(Pixel*Frame) : 0.232
Stream size : 2.05 GiB (52%)
Title : -Lexx-
Writing library : x264 core 146 r2538 121396c
Encoding settings : cabac=1 / ref=9 / deblock=1:-2:-2 / analyse=0x3:0x113 / me=umh / subme=11 / psy=1 / psy_rd=1.00:0.10 / mixed_ref=1 / me_range=48 / chroma_me=1 / trellis=2 / 8x8dct=1 / cqm=0 / deadzone=21,11 / fast_pskip=0 / chroma_qp_offset=-3 / threads=6 / lookahead_threads=2 / sliced_threads=0 / nr=0 / decimate=0 / interlaced=0 / bluray_compat=0 / constrained_intra=0 / bframes=10 / b_pyramid=2 / b_adapt=2 / b_bias=0 / direct=3 / weightb=1 / open_gop=0 / weightp=2 / keyint=240 / keyint_min=23 / scenecut=40 / intra_refresh=0 / rc=2pass / mbtree=0 / bitrate=2586 / ratetol=1.0 / qcomp=0.60 / qpmin=0 / qpmax=69 / qpstep=4 / cplxblur=20.0 / qblur=0.5 / ip_ratio=1.40 / pb_ratio=1.30 / aq=1:1.00
Language : English
Default : Yes
Forced : No
DURATION : 01:57:36.800000000
NUMBER_OF_FRAMES : 169194
NUMBER_OF_BYTES : 2279685464
_STATISTICS_WRITING_APP : mkvmerge v9.1.0 ('Little Earthquakes') 64bit
_STATISTICS_WRITING_DATE_UTC : 2016-05-17 04:33:57
_STATISTICS_TAGS : BPS DURATION NUMBER_OF_FRAMES NUMBER_OF_BYTES
Audio #1
ID : 2
Format : AC-3
Format/Info : Audio Coding 3
Mode extension : CM (complete main)
Codec ID : A_AC3
Duration : 1h 57mn
Bit rate mode : Constant
Bit rate : 448 Kbps
Channel(s) : 6 channels
Channel positions : Front: L C R, Side: L R, LFE
Sampling rate : 48.0 KHz
Bit depth : 16 bits
Compression mode : Lossy
Stream size : 377 MiB (9%)
Title : Дубляж Blu-ray CEE
Language : Russian
Default : Yes
Forced : No
Audio #2
ID : 3
Format : AC-3
Format/Info : Audio Coding 3
Mode extension : CM (complete main)
Codec ID : A_AC3
Duration : 1h 57mn
Bit rate mode : Constant
Bit rate : 448 Kbps
Channel(s) : 6 channels
Channel positions : Front: L C R, Side: L R, LFE
Sampling rate : 48.0 KHz
Bit depth : 16 bits
Compression mode : Lossy
Stream size : 377 MiB (9%)
Title : MVO Киномания
Language : Russian
Default : No
Forced : No
Audio #3
ID : 4
Format : AC-3
Format/Info : Audio Coding 3
Mode extension : CM (complete main)
Codec ID : A_AC3
Duration : 1h 57mn
Bit rate mode : Constant
Bit rate : 448 Kbps
Channel(s) : 6 channels
Channel positions : Front: L C R, Side: L R, LFE
Sampling rate : 48.0 KHz
Bit depth : 16 bits
Compression mode : Lossy
Stream size : 377 MiB (9%)
Title : DVO Tycoon-Studio
Language : Russian
Default : No
Forced : No
Audio #4
ID : 5
Format : AC-3
Format/Info : Audio Coding 3
Mode extension : CM (complete main)
Codec ID : A_AC3
Duration : 1h 57mn
Bit rate mode : Constant
Bit rate : 448 Kbps
Channel(s) : 6 channels
Channel positions : Front: L C R, Side: L R, LFE
Sampling rate : 48.0 KHz
Bit depth : 16 bits
Compression mode : Lossy
Stream size : 377 MiB (9%)
Title : AVO А.Матвеев
Language : Russian
Default : No
Forced : No
Audio #5
ID : 6
Format : AC-3
Format/Info : Audio Coding 3
Mode extension : CM (complete main)
Codec ID : A_AC3
Duration : 1h 57mn
Bit rate mode : Constant
Bit rate : 448 Kbps
Channel(s) : 6 channels
Channel positions : Front: L C R, Side: L R, LFE
Sampling rate : 48.0 KHz
Bit depth : 16 bits
Compression mode : Lossy
Stream size : 377 MiB (9%)
Title : Оригинал
Language : English
Default : No
Forced : No
Text #1
ID : 7
Format : UTF-8
Codec ID : S_TEXT/UTF8
Codec ID/Info : UTF-8 Plain Text
Title : Blu-ray CEE
Language : Russian
Default : No
Forced : No
Text #2
ID : 8
Format : UTF-8
Codec ID : S_TEXT/UTF8
Codec ID/Info : UTF-8 Plain Text
Title : Tycoon
Language : Russian
Default : No
Forced : No
Text #3
ID : 9
Format : UTF-8
Codec ID : S_TEXT/UTF8
Codec ID/Info : UTF-8 Plain Text
Title : Blu-ray CEE
Language : Ukrainian
Default : No
Forced : No
Text #4
ID : 10
Format : UTF-8
Codec ID : S_TEXT/UTF8
Codec ID/Info : UTF-8 Plain Text
Title : SDH
Language : English
Default : No
Forced : No
Menu
00:00:00.000 : en:00:00:00.000
00:02:58.178 : en:00:02:58.178
00:04:31.980 : en:00:04:31.980
00:07:25.111 : en:00:07:25.111
00:11:18.261 : en:00:11:18.261
00:12:58.569 : en:00:12:58.569
00:16:58.184 : en:00:16:58.184
00:22:38.816 : en:00:22:38.816
00:25:04.878 : en:00:25:04.878
00:27:58.343 : en:00:27:58.343
00:30:21.486 : en:00:30:21.486
00:36:19.177 : en:00:36:19.177
00:41:30.321 : en:00:41:30.321
00:42:24.000 : en:00:42:24.000
00:45:56.337 : en:00:45:56.337
00:48:44.463 : en:00:48:44.463
00:55:18.899 : en:00:55:18.899
00:57:27.277 : en:00:57:27.277
00:59:44.998 : en:00:59:44.998
01:01:49.414 : en:01:01:49.414
01:03:16.001 : en:01:03:16.001
01:07:44.394 : en:01:07:44.394
01:12:39.522 : en:01:12:39.522
01:16:13.527 : en:01:16:13.527
01:20:12.474 : en:01:20:12.474
01:22:34.533 : en:01:22:34.533
01:27:07.514 : en:01:27:07.514
01:28:45.237 : en:01:28:45.237
01:34:02.220 : en:01:34:02.220
01:36:54.308 : en:01:36:54.308
01:41:12.316 : en:01:41:12.316
01:42:37.276 : en:01:42:37.276
01:44:31.807 : en:01:44:31.807
01:45:56.267 : en:01:45:56.267
01:49:04.496 : en:01:49:04.496
01:52:21.735 : en:01:52:21.735



   Похожие торренты   Торрент   Размер 
В этой теме нет новых непрочитанных сообщений. Бегущий по лезвию / Blade Runner [Final Cut] (1982) BDRip от HQ-VIDEO

16 | 5

2.5 ГБ

В этой теме нет новых непрочитанных сообщений. Бегущий по лезвию / Blade Runner (1982) BDRip-AVC от Leo.pard | The Final Cut | D

199 | 8

744.62 МБ

В этой теме нет новых непрочитанных сообщений. Бегущий по лезвию / Blade Runner (1982) BDRip 720p | Final Cut

75 | 7

5.52 ГБ

В этой теме нет новых непрочитанных сообщений. Бегущий по лезвию / Blade Runner (1982) BDRip 1080p | The Final Cut

43 | 11

7.76 ГБ

В этой теме нет новых непрочитанных сообщений. Бегущий по лезвию / Blade Runner [Final Cut] (1982) BDRip от HELLYWOOD

327 | 142

2.18 ГБ

В этой теме нет новых непрочитанных сообщений. Бегущий по лезвию / Blade Runner [The Final Cut] (1982) BDRip от HQCLUB

230 | 6

2.18 ГБ

В этой теме нет новых непрочитанных сообщений. Бегущий по лезвию / Blade Runner (1982) BDRip 720p от HQ-ViDEO | Final Cut

29 | 46

5.1 ГБ




Вы не можете начинать темы
Вы не можете отвечать на сообщения
Вы не можете редактировать свои сообщения
Вы не можете удалять свои сообщения
Вы не можете добавлять вложения

Перейти:  
Для Мосгорсуда, Роскомнадзора и рекламодателей: mosgorsud-torrent[собачка]yandex.ru
 Вход
ppkBB3cker v.2 © 2008-2014 @ PPK
[ Time : 0.392s | 19 Queries | GZIP : Off ]

cron