Designated Survivor HDTV 720p AC3 5.1
Gotham HDTV 720p AC3 5.1
img image001 image001 image001 image001 image001 image001 image001 image001 image001 image001 image001 image001 image001 image001 image001 image001
Planets Sun Sun Sun
Статистика раздачи
Автор: PriZraK | Размер: 7.23 ГБ | Добавлен: 31 дек 2016
Раздают: 4    Качают: 0
Скачать торрент
Скачать торрент
Описание торрента

СообщениеДобавлено: 31 дек 2016 

Убийца

Point of No Return

«Правительство предоставило ей выбор: умереть или стать убийцей. Теперь, возврата нет»



Страна: США
Жанр: боевик, триллер, драма, мелодрама, криминал
Год выпуска: 1993
Продолжительность: 01:48:22
Перевод: Профессиональный (полное дублирование), 2 x Профессиональный (многоголосый, закадровый), Авторский
Субтитры: русские, английские (SDH).


Режиссер: Джон Бэдэм / John Badham


В ролях: Бриджит Фонда (Maggie Hayward - Claudia Anne Doran - Nina), Гэбриел Бирн (Bob), Дермот Малруни (J.P.), Мигель Феррер (Kaufman), Энн Бэнкрофт (Amanda), Оливия д’Або (Angela), Ричард Романус (Fahd Bahktiar), Харви Кейтель (Victor the Cleaner), Лоррейн Туссен (Beth), Джеффри Льюис (Drugstore Owner), Мик Роджерс (Cop), Майкл Рапапорт (Big Stan)


Описание: Жестокая, напичканная наркотиками, она была обвинена в убийстве и приговорена к смерти. Но секретная государственная служба превратила эту женщину из обитательницы камеры смертников в убийцу-профессионала, живущего взаймы...



MPAA: R - Лицам до 17 лет обязательно присутствие взрослого


Семпл


Качество: BDRip
Контейнер: MKV

Видео: AVC, 1280x534 (2.40:1), 7698 kbps, 23,976 fps, 0,470 bpp
Аудио №1: русский / AC3 / 5.1 / 48 kHz / 448 kbps / Дубляж
Аудио №2: русский / AC3 / 2.0 / 48 kHz / 192 kbps / MVO ( НТВ )
Аудио №3: русский / AC3 / 2.0 / 48 kHz / 192 kbps / MVO ( Россия )
Аудио №4: русский / AC3 / 5.1 / 48 kHz / 384 kbps / AVO ( Гаврилов )
Аудио №5: английский / AC3 / 5.1 / 48 kHz / 640 kbps
Навигация по главам: есть


**********************************************************************
x264 [info]: frame I:1001 Avg QP:16.15 size:110400
x264 [info]: frame P:28977 Avg QP:18.34 size: 62576
x264 [info]: frame B:125874 Avg QP:20.60 size: 34401
**********************************************************************
Формат : Matroska
Версия формата : Version 2
Размер файла : 7,23 Гбайт
Продолжительность : 1 ч. 48 м.
Общий поток : 9553 Кбит/сек
Название фильма : = Убийца / Точка невозврата / Point of No Return (1993) BDRip 720p by SC Kosmos =
Дата кодирования : UTC 2016-12-29 08:52:02
Программа кодирования : mkvmerge v5.8.0 ('No Sleep / Pillow') built on Sep 2 2012 15:37:04
Библиотека кодирования : libebml v1.2.3 + libmatroska v1.3.0
Attachment : Yes

Видео
Идентификатор : 1
Формат : AVC
Формат/Информация : Advanced Video Codec
Профиль формата : [email protected]
Параметр CABAC формата : Да
Параметр ReFrames формата : 12 кадров
Идентификатор кодека : V_MPEG4/ISO/AVC
Продолжительность : 1 ч. 48 м.
Битрейт : 7698 Кбит/сек
Ширина : 1280 пикселей
Высота : 534 пикселя
Соотношение сторон : 2,40:1
Режим частоты кадров : Постоянный
Частота кадров : 23,976 кадра/сек
Цветовое пространство : YUV
Субдискретизация насыщенности : 4:2:0
Битовая глубина : 8 бит
Тип развёртки : Прогрессивная
Бит/(Пиксели*Кадры) : 0.470
Размер потока : 5,68 Гбайт (79%)
Заголовок : Убийца / Точка невозврата / Point of No Return (1993) BDRip 720p by SC Kosmos
Библиотека кодирования : x264 core 148 r2705 3f5ed56
Настройки программы : cabac=1 / ref=12 / deblock=1:-2:-2 / analyse=0x3:0x113 / me=umh / subme=11 / psy=1 / psy_rd=1.00:0.00 / mixed_ref=1 / me_range=32 / chroma_me=1 / trellis=2 / 8x8dct=1 / cqm=0 / deadzone=21,11 / fast_pskip=0 / chroma_qp_offset=-2 / threads=12 / lookahead_threads=3 / sliced_threads=0 / nr=0 / decimate=0 / interlaced=0 / bluray_compat=0 / constrained_intra=0 / bframes=12 / b_pyramid=2 / b_adapt=2 / b_bias=0 / direct=3 / weightb=1 / open_gop=0 / weightp=2 / keyint=240 / keyint_min=23 / scenecut=40 / intra_refresh=0 / rc_lookahead=40 / rc=2pass / mbtree=0 / bitrate=7698 / ratetol=1.0 / qcomp=0.60 / qpmin=0 / qpmax=69 / qpstep=4 / cplxblur=20.0 / qblur=0.5 / vbv_maxrate=62500 / vbv_bufsize=78125 / nal_hrd=none / filler=0 / ip_ratio=1.40 / pb_ratio=1.30 / aq=1:0.70
Язык : English
Default : Да
Forced : Нет

Аудио #1
Идентификатор : 2
Формат : AC-3
Формат/Информация : Audio Coding 3
Расширение режима : CM (complete main)
Параметр Endianness формата : Big
Идентификатор кодека : A_AC3
Продолжительность : 1 ч. 48 м.
Вид битрейта : Постоянный
Битрейт : 448 Кбит/сек
Каналы : 6 каналов
Расположение каналов : Front: L C R, Side: L R, LFE
Частота : 48,0 КГц
Битовая глубина : 16 бит
Метод сжатия : С потерями
Размер потока : 347 Мбайт (5%)
Заголовок : Дубляж
Язык : Russian
Default : Да
Forced : Нет

Аудио #2
Идентификатор : 3
Формат : AC-3
Формат/Информация : Audio Coding 3
Расширение режима : CM (complete main)
Параметр Endianness формата : Big
Идентификатор кодека : A_AC3
Продолжительность : 1 ч. 48 м.
Вид битрейта : Постоянный
Битрейт : 192 Кбит/сек
Каналы : 2 канала
Расположение каналов : Front: L R
Частота : 48,0 КГц
Битовая глубина : 16 бит
Метод сжатия : С потерями
Размер потока : 149 Мбайт (2%)
Заголовок : MVO ( НТВ )
Язык : Russian
Default : Нет
Forced : Нет

Аудио #3
Идентификатор : 4
Формат : AC-3
Формат/Информация : Audio Coding 3
Расширение режима : CM (complete main)
Параметр Endianness формата : Big
Идентификатор кодека : A_AC3
Продолжительность : 1 ч. 48 м.
Вид битрейта : Постоянный
Битрейт : 192 Кбит/сек
Каналы : 2 канала
Расположение каналов : Front: L R
Частота : 48,0 КГц
Битовая глубина : 16 бит
Метод сжатия : С потерями
Размер потока : 149 Мбайт (2%)
Заголовок : MVO ( Россия )
Язык : Russian
Default : Нет
Forced : Нет

Аудио #4
Идентификатор : 5
Формат : AC-3
Формат/Информация : Audio Coding 3
Расширение режима : CM (complete main)
Параметр Endianness формата : Big
Идентификатор кодека : A_AC3
Продолжительность : 1 ч. 48 м.
Вид битрейта : Постоянный
Битрейт : 384 Кбит/сек
Каналы : 6 каналов
Расположение каналов : Front: L C R, Side: L R, LFE
Частота : 48,0 КГц
Битовая глубина : 16 бит
Метод сжатия : С потерями
Размер потока : 298 Мбайт (4%)
Заголовок : AVO ( Гаврилов )
Язык : Russian
Default : Нет
Forced : Нет

Аудио #5
Идентификатор : 6
Формат : AC-3
Формат/Информация : Audio Coding 3
Расширение режима : CM (complete main)
Параметр Endianness формата : Big
Идентификатор кодека : A_AC3
Продолжительность : 1 ч. 48 м.
Вид битрейта : Постоянный
Битрейт : 640 Кбит/сек
Каналы : 6 каналов
Расположение каналов : Front: L C R, Side: L R, LFE
Частота : 48,0 КГц
Битовая глубина : 16 бит
Метод сжатия : С потерями
Размер потока : 496 Мбайт (7%)
Язык : English
Default : Нет
Forced : Нет

Текст #1
Идентификатор : 7
Формат : UTF-8
Идентификатор кодека : S_TEXT/UTF8
Идентификатор кодека/Информация : UTF-8 Plain Text
Язык : Russian
Default : Нет
Forced : Нет

Текст #2
Идентификатор : 8
Формат : UTF-8
Идентификатор кодека : S_TEXT/UTF8
Идентификатор кодека/Информация : UTF-8 Plain Text
Заголовок : SDH
Язык : English
Default : Нет
Forced : Нет

Меню
00:00:00.000 : en:00:00:00.000
00:05:29.204 : en:00:05:29.204
00:08:33.847 : en:00:08:33.847
00:12:25.078 : en:00:12:25.078
00:16:06.924 : en:00:16:06.924
00:17:54.657 : en:00:17:54.657
00:21:55.689 : en:00:21:55.689
00:26:57.950 : en:00:26:57.950
00:29:32.270 : en:00:29:32.270
00:32:17.853 : en:00:32:17.853
00:39:53.266 : en:00:39:53.266
00:42:29.881 : en:00:42:29.881
00:47:20.004 : en:00:47:20.004
00:50:42.790 : en:00:50:42.790
00:53:55.357 : en:00:53:55.357
00:55:33.330 : en:00:55:33.330
00:59:54.174 : en:00:59:54.174
01:01:48.371 : en:01:01:48.371
01:05:42.897 : en:01:05:42.897
01:09:17.779 : en:01:09:17.779
01:16:18.908 : en:01:16:18.908
01:19:22.049 : en:01:19:22.049
01:21:55.869 : en:01:21:55.869
01:24:41.076 : en:01:24:41.076
01:27:47.304 : en:01:27:47.304
01:30:10.196 : en:01:30:10.196
01:35:18.588 : en:01:35:18.588
01:39:25.376 : en:01:39:25.376
01:42:53.876 : en:01:42:53.876
01:44:51.368 : en:01:44:51.368









2 х MVO - JUSTKANT.
ЦитатаКто-то писал:
team_6strun - собственная запись перевода с телеканала НТВ в 90-х годах через видеомагнитофон и оцифровка со своей видеокассеты.
mixaiil77 - собственная запись перевода Россия с телеканала РЕН ТВ в наше время через спутник.
JUSTKANT - синхронизация переводов.

Гаврилов - zim2001



   Похожие торренты   Торрент   Размер 
В этой теме нет новых непрочитанных сообщений. Убийца / Точка невозврата / Point of No Return (1993) BDRip 720p

2 | 3

3.4 ГБ

В этой теме нет новых непрочитанных сообщений. Убийца / Точка невозврата / Point of No Return (1993) BDRip [720p] от HQ-ViDEO

5 | 3

4.71 ГБ

В этой теме нет новых непрочитанных сообщений. Убийца / Точка невозврата / Point of No Return (1993) BDRip-AVC | D, A

28 | 10

3.57 ГБ

В этой теме нет новых непрочитанных сообщений. Убийца / Точка невозврата / Point of No Return (1993) BDRip-AVC | D

5 | 0

2.18 ГБ

В этой теме нет новых непрочитанных сообщений. Убийца / Точка невозврата / Point of No Return (1993) BDRip | P

31 | 5

1.46 ГБ

В этой теме нет новых непрочитанных сообщений. Точка невозврата / Убийца / Point of No Return (1993) BDRip 1080p | D, A

20 | 8

13.84 ГБ

В этой теме нет новых непрочитанных сообщений. Точка невозврата [Убийца] / Point of No Return (1993) BDRip от HQ-VIDEO

4 | 7

2.18 ГБ




Вы не можете начинать темы
Вы не можете отвечать на сообщения
Вы не можете редактировать свои сообщения
Вы не можете удалять свои сообщения
Вы не можете добавлять вложения

Перейти:  
Для Мосгорсуда, Роскомнадзора и рекламодателей: mosgorsud-torrent[собачка]yandex.ru
 Вход
ppkBB3cker v.2 © 2008-2014 @ PPK
[ Time : 0.063s | 19 Queries | GZIP : Off ]

cron