img image001 image001 image001 image001 image001 image001 image001 image001 image001 image001 image001 image001 image001 image001 image001

Planets Sun Sun Sun
Статистика раздачи
Автор: Nickolas3434 | Размер: 25.26 ГБ | Добавлен: 21 май 2017
Раздают: 25    Качают: 12
Скачать торрент
Скачать торрент
Описание торрента

СообщениеДобавлено: 21 май 2017 

Информация о фильме
Название: Звонки
Оригинальное название: Rings
Год выхода: 2017
Жанр: Ужасы, драма
Режиссер: Ф. Хавьер Гутьеррес
В ролях: Матильда Анна Ингрид Лутс, Алекс Роу, Джонни Галэки, Винсент Д`Онофрио, Эйми Тигарден, Бонни Морган, Чак Дэвид Уиллис, Патрик Р. Уокер, Зак Рериг, Лаура Уиггинс
О фильме:
Молодой человек увлеченно исследует мрачную субкультуру, связанную с таинственной видеокассетой, через 7 дней после просмотра которой гибнет всякий увидевший запись. Однако, его девушка уверена, что бойфренду грозит опасность, и чтобы спасти его, она решает принять удар на себя. Её ждет немало чудовищных открытий, но самым страшным станет фильм в фильме, который прежде никто не видел

Страна: США
Студия: Macari/Edelstein, MacDonald/Parkes Productions, Vertigo Entertainment, Waddieish Claretrap
Продолжительность: 01:42:11
Перевод: Дублированный | Лицензия
Файл
Качество: BDRemux 1080p
Видео: MPEG-4 AVC, 1920x1080, 29.7 Mbit/s, 23.976 fps
Звук:
Аудио #01: 48 kHz, AC3, 5.1, 640 Kbps | Дублированный | RUS |
Аудио #02: 48 kHz, DTS-HD MA, 7.1, 4417 Kbps | Оригинал | ENG |
Субтитры: Русские (forced, full), английские (full, SDH Colored)

General
Unique ID : 209392888008221383746552032303097869803 (0x9D879A72E56816549FAD0BFB8A7875EB)
Complete name : F:VideoRings.2017.Lic.BDREMUX.1080p.ExKinoRay.mkv
Format : Matroska
Format version : Version 4 / Version 2
File size : 25.3 GiB
Duration : 1 h 42 min
Overall bit rate mode : Variable
Overall bit rate : 35.4 Mb/s
Encoded date : UTC 2017-05-20 19:28:58
Writing application : mkvmerge v11.0.0 ('Alive') 64bit
Writing library : libebml v1.3.4 + libmatroska v1.4.5
Video
ID : 1
Format : AVC
Format/Info : Advanced Video Codec
Format profile : [email protected]
Format settings, CABAC : Yes
Format settings, ReFrames : 2 frames
Format settings, GOP : M=1, N=10
Codec ID : V_MPEG4/ISO/AVC
Duration : 1 h 42 min
Bit rate mode : Variable
Bit rate : 29.7 Mb/s
Width : 1 920 pixels
Height : 1 080 pixels
Display aspect ratio : 16:9
Frame rate mode : Constant
Frame rate : 23.976 (24000/1001) FPS
Color space : YUV
Chroma subsampling : 4:2:0
Bit depth : 8 bits
Scan type : Progressive
Bits/(Pixel*Frame) : 0.597
Stream size : 21.2 GiB (84%)
Language : English
Default : Yes
Forced : No
Audio #1
ID : 2
Format : AC-3
Format/Info : Audio Coding 3
Format settings, Endianness : Big
Codec ID : A_AC3
Duration : 1 h 42 min
Bit rate mode : Constant
Bit rate : 640 kb/s
Channel(s) : 6 channels
Channel positions : Front: L C R, Side: L R, LFE
Sampling rate : 48.0 kHz
Frame rate : 31.250 FPS (1536 spf)
Bit depth : 16 bits
Compression mode : Lossy
Stream size : 468 MiB (2%)
Title : Dub [License]
Language : Russian
Service kind : Complete Main
Default : Yes
Forced : No
Audio #2
ID : 3
Format : DTS
Format/Info : Digital Theater Systems
Format profile : MA / Core
Mode : 16
Format settings, Endianness : Big
Codec ID : A_DTS
Duration : 1 h 42 min
Bit rate mode : Variable / Constant
Bit rate : 4 417 kb/s / 1 509 kb/s
Channel(s) : 8 channels / 6 channels
Channel positions : Front: L C R, Side: L R, Back: L R, LFE / Front: L C R, Side: L R, LFE
Sampling rate : 48.0 kHz
Frame rate : 93.750 FPS (512 spf)
Bit depth : 24 bits
Compression mode : Lossless / Lossy
Stream size : 3.15 GiB (12%)
Title : Original
Language : English
Default : No
Forced : No
Audio #3
ID : 4
Format : AC-3
Format/Info : Audio Coding 3
Format settings, Endianness : Big
Codec ID : A_AC3
Duration : 1 h 42 min
Bit rate mode : Constant
Bit rate : 640 kb/s
Channel(s) : 6 channels
Channel positions : Front: L C R, Side: L R, LFE
Sampling rate : 48.0 kHz
Frame rate : 31.250 FPS (1536 spf)
Bit depth : 16 bits
Compression mode : Lossy
Stream size : 468 MiB (2%)
Title : Original
Language : English
Service kind : Complete Main
Default : No
Forced : No
Text #1
ID : 5
Format : UTF-8
Codec ID : S_TEXT/UTF8
Codec ID/Info : UTF-8 Plain Text
Duration : 1 h 38 min
Bit rate : 0 b/s
Count of elements : 17
Stream size : 726 Bytes (0%)
Title : Forced
Language : Russian
Default : Yes
Forced : No
Text #2
ID : 6
Format : UTF-8
Codec ID : S_TEXT/UTF8
Codec ID/Info : UTF-8 Plain Text
Duration : 1 h 41 min
Bit rate : 48 b/s
Count of elements : 793
Stream size : 36.2 KiB (0%)
Title : Full
Language : Russian
Default : No
Forced : No
Text #3
ID : 7
Format : UTF-8
Codec ID : S_TEXT/UTF8
Codec ID/Info : UTF-8 Plain Text
Duration : 1 h 36 min
Bit rate : 30 b/s
Count of elements : 795
Stream size : 21.3 KiB (0%)
Title : Full
Language : English
Default : No
Forced : No
Text #4
ID : 8
Format : UTF-8
Codec ID : S_TEXT/UTF8
Codec ID/Info : UTF-8 Plain Text
Duration : 1 h 36 min
Bit rate : 50 b/s
Count of elements : 999
Stream size : 35.8 KiB (0%)
Title : SDH {Colored)
Language : English
Default : No
Forced : No
Menu
00:00:00.000 : en:00:00:00.000
00:08:42.731 : en:00:08:42.731
00:15:28.136 : en:00:15:28.136
00:20:39.989 : en:00:20:39.989
00:25:25.190 : en:00:25:25.190
00:32:55.182 : en:00:32:55.182
00:39:17.855 : en:00:39:17.855
00:48:53.722 : en:00:48:53.722
00:55:06.929 : en:00:55:06.929
01:00:24.371 : en:01:00:24.371
01:07:38.221 : en:01:07:38.221
01:18:21.113 : en:01:18:21.113
01:31:47.210 : en:01:31:47.210
01:36:37.500 : en:01:36:37.500

Релиз от: Автор релиза: Подпишись на меня:



   Похожие торренты   Торрент   Размер 
В этой теме нет новых непрочитанных сообщений. Звонки / Rings (2017) BDRemux 1080p | iTunes

44 | 22

26.51 ГБ

В этой теме нет новых непрочитанных сообщений. Звонки / Rings (2017) BDRip 1080p от ExKinoRay | iTunes

136 | 5

12.27 ГБ

В этой теме нет новых непрочитанных сообщений. Звонки / Rings (2017) BDRip-HEVC 1080p | D | Лицензия

72 | 13

6.92 ГБ

В этой теме нет новых непрочитанных сообщений. Звонки / Rings (2017) BDRip-AVC от ExKinoRay | iTunes

1067 | 33

2.47 ГБ

В этой теме нет новых непрочитанных сообщений. Звонки / Rings (2017) BDRip от ExKinoRay | iTunes

151 | 12

1.42 ГБ

В этой теме нет новых непрочитанных сообщений. Звонки / Rings (2017) BDRip 720p от ExKinoRay | iTunes

601 | 18

5.37 ГБ

В этой теме нет новых непрочитанных сообщений. Звонки / Rings (2017) BDRip от HQCLUB | Лицензия

426 | 35

2.18 ГБ




Вы не можете начинать темы
Вы не можете отвечать на сообщения
Вы не можете редактировать свои сообщения
Вы не можете удалять свои сообщения
Вы не можете добавлять вложения

Перейти:  
Для Мосгорсуда, Роскомнадзора и рекламодателей: mosgorsud-torrent[собачка]yandex.ru
 Вход
ppkBB3cker v.2 © 2008-2014 @ PPK
[ Time : 0.060s | 18 Queries | GZIP : Off ]

cron