Stacy Shane
Penny Downie
img image001 image001 image001 image001 image001 image001 image001 image001 image001 image001 image001 image001 image001 image001 image001 image001
Planets Sun Sun Sun
Статистика раздачи
Автор: Nickolas3434 | Размер: 2.52 ГБ | Добавлен: 04 июл 2017
Раздают: 44    Качают: 2
Скачать торрент
Скачать торрент
Описание торрента

СообщениеДобавлено: 04 июл 2017 

Информация о фильме
Название: Дьявольщина
Оригинальное название: Diabolique
Год выхода: 1996
Жанр: Триллер, Детектив
Режиссер: Джеримайя С. Чечик / Jeremiah S. Chechik
В ролях: Шэрон Стоун, Изабель Аджани, Чазз Пальминтери, Кэти Бейтс, Сполдинг Грей, Ширли Найт, Аллен Гарфилд, Адам Хэнн-Берд, Донал Лог, Диана Беллами...
Описание:
Две женщины... Один план... Мы отравим гада, который обращается с нами, как с куклами. Мы утопим его труп в темном бассейне, и когда чистильщик бассейна осушит его, его будет ждать неожиданный сюрприз на дне. Но, оказывается, сюрприз ожидает самих заговорщиц: на дне пустого бассейна не оказалось никакого трупа...

Страна: США
Продолжительность: 01:49:16
Перевод: Дублированный), профессиональный (многоголосый, закадровый), профессиональный (двухголосый, закадровый), авторский (одноголосый, закадровый)
Cубтитры: английские
Файл
Качество: WEBRip-AVC
Формат: MKV
Видео: AVC, 1024x576 (16:9), 23.976 fps, 2 199 Kbps (0.147 bit/pixel)
Аудио #1: AC-3, 48.0 KHz, 2 ch, 192 Kbps, CBR (Russian) | Дублированный (Варус Видео)
Аудио #2: AC-3, 48.0 KHz, 2 ch, 192 Kbps, CBR (Russian) | Профессиональный многоголосый (Первый канал)
Аудио #3: AC-3, 48.0 KHz, 2 ch, 192 Kbps, CBR (Russian) | Профессиональный двухголосый (Екатеринбург Арт)
Аудио #4: AC-3, 48.0 KHz, 2 ch, 192 Kbps, CBR (Russian) | Авторский (Андрей Гаврилов)
Аудио #5: AC-3, 48.0 KHz, 6 ch, 384 Kbps, CBR (English)
Релиз: &
Формат : Matroska
Версия формата : Version 2
Размер файла : 2,52 Гбайт
Продолжительность : 1 ч. 49 м.
Общий поток : 3300 Кбит/сек
Дата кодирования : UTC 2017-06-28 12:15:09
Программа кодирования : mkvmerge v5.3.0 ('I could have danced') built on Feb 9 2012 10:38:07
Библиотека кодирования : libebml v1.2.3 + libmatroska v1.3.0
Attachments : poster (11).jpg
Видео
Идентификатор : 1
Формат : AVC
Формат/Информация : Advanced Video Codec
Профиль формата : [email protected]
Параметр CABAC формата : Да
Параметр ReFrames формата : 11 кадров
Идентификатор кодека : V_MPEG4/ISO/AVC
Продолжительность : 1 ч. 49 м.
Битрейт : 2082 Кбит/сек
Номинальный битрейт : 2199 Кбит/сек
Ширина : 1024 пикселя
Высота : 576 пикселей
Соотношение сторон : 16:9
Режим частоты кадров : Постоянный
Частота кадров : 23,976 (24000/1001) кадра/сек
Цветовое пространство : YUV
Субдискретизация насыщенности : 4:2:0
Битовая глубина : 8 бит
Тип развёртки : Прогрессивная
Бит/(Пиксели*Кадры) : 0.147
Размер потока : 1,59 Гбайт (63%)
Библиотека кодирования : x264 core 146 r2538 121396c
Настройки программы : cabac=1 / ref=11 / deblock=1:-2:-2 / analyse=0x3:0x133 / me=umh / subme=11 / psy=1 / psy_rd=1.00:0.10 / mixed_ref=1 / me_range=32 / chroma_me=1 / trellis=2 / 8x8dct=1 / cqm=0 / deadzone=21,11 / fast_pskip=0 / chroma_qp_offset=-3 / threads=12 / lookahead_threads=3 / sliced_threads=0 / nr=0 / decimate=0 / interlaced=0 / bluray_compat=0 / constrained_intra=0 / bframes=11 / b_pyramid=2 / b_adapt=2 / b_bias=0 / direct=3 / weightb=1 / open_gop=0 / weightp=2 / keyint=240 / keyint_min=23 / scenecut=40 / intra_refresh=0 / rc=2pass / mbtree=0 / bitrate=2199 / ratetol=1.0 / qcomp=0.60 / qpmin=0 / qpmax=69 / qpstep=4 / cplxblur=20.0 / qblur=0.5 / ip_ratio=1.40 / pb_ratio=1.30 / aq=1:1.00
Язык : English
Default : Да
Forced : Нет
Аудио #1
Идентификатор : 2
Формат : AC-3
Формат/Информация : Audio Coding 3
Расширение режима : CM (complete main)
Параметр Endianness формата : Big
Идентификатор кодека : A_AC3
Продолжительность : 1 ч. 49 м.
Вид битрейта : Постоянный
Битрейт : 192 Кбит/сек
Каналы : 2 канала
Расположение каналов : Front: L R
Частота : 48,0 КГц
Частота кадров : 31,250 кадров/сек (1536 spf)
Битовая глубина : 16 бит
Метод сжатия : С потерями
Задержка видео : 16 мс.
Размер потока : 150 Мбайт (6%)
Заголовок : Dub (Варус Видео)
Язык : Russian
Default : Нет
Forced : Да
Аудио #2
Идентификатор : 3
Формат : AC-3
Формат/Информация : Audio Coding 3
Расширение режима : CM (complete main)
Параметр Endianness формата : Big
Идентификатор кодека : A_AC3
Продолжительность : 1 ч. 49 м.
Вид битрейта : Постоянный
Битрейт : 192 Кбит/сек
Каналы : 2 канала
Расположение каналов : Front: L R
Частота : 48,0 КГц
Частота кадров : 31,250 кадров/сек (1536 spf)
Битовая глубина : 16 бит
Метод сжатия : С потерями
Задержка видео : 16 мс.
Размер потока : 150 Мбайт (6%)
Заголовок : ПМ (Первый канал)
Язык : Russian
Default : Нет
Forced : Да
Аудио #3
Идентификатор : 4
Формат : AC-3
Формат/Информация : Audio Coding 3
Расширение режима : CM (complete main)
Параметр Endianness формата : Big
Идентификатор кодека : A_AC3
Продолжительность : 1 ч. 49 м.
Вид битрейта : Постоянный
Битрейт : 192 Кбит/сек
Каналы : 2 канала
Расположение каналов : Front: L R
Частота : 48,0 КГц
Частота кадров : 31,250 кадров/сек (1536 spf)
Битовая глубина : 16 бит
Метод сжатия : С потерями
Задержка видео : 16 мс.
Размер потока : 150 Мбайт (6%)
Заголовок : ПД (Екатеринбург Арт)
Язык : Russian
Default : Да
Forced : Да
Аудио #4
Идентификатор : 5
Формат : AC-3
Формат/Информация : Audio Coding 3
Расширение режима : CM (complete main)
Параметр Endianness формата : Big
Идентификатор кодека : A_AC3
Продолжительность : 1 ч. 49 м.
Вид битрейта : Постоянный
Битрейт : 192 Кбит/сек
Каналы : 2 канала
Расположение каналов : Front: L R
Частота : 48,0 КГц
Частота кадров : 31,250 кадров/сек (1536 spf)
Битовая глубина : 16 бит
Метод сжатия : С потерями
Задержка видео : 16 мс.
Размер потока : 150 Мбайт (6%)
Заголовок : АП (Гаврилов)
Язык : Russian
Default : Нет
Forced : Да
Аудио #5
Идентификатор : 6
Формат : AC-3
Формат/Информация : Audio Coding 3
Расширение режима : CM (complete main)
Параметр Endianness формата : Big
Идентификатор кодека : A_AC3
Продолжительность : 1 ч. 49 м.
Вид битрейта : Постоянный
Битрейт : 384 Кбит/сек
Каналы : 6 каналов
Расположение каналов : Front: L C R, Side: L R, LFE
Частота : 48,0 КГц
Частота кадров : 31,250 кадров/сек (1536 spf)
Битовая глубина : 16 бит
Метод сжатия : С потерями
Размер потока : 300 Мбайт (12%)
Заголовок : Original
Язык : English
Default : Нет
Forced : Нет
Текст
Идентификатор : 7
Формат : UTF-8
Идентификатор кодека : S_TEXT/UTF8
Идентификатор кодека/Информация : UTF-8 Plain Text
Заголовок : Sub
Язык : English
Default : Нет
Forced : Нет

Скриншоты:



   Похожие торренты   Торрент   Размер 
В этой теме нет новых непрочитанных сообщений. Дьявольщина / Diabolique (1996) DVDRip

9 | 3

1.45 ГБ

В этой теме нет новых непрочитанных сообщений. Дьявольщина / Diabolique (1996) DVDRip-AVC | D, Р2

3 | 0

2.08 ГБ

В этой теме нет новых непрочитанных сообщений. Дьявольщина / Дьяволицы / Diabolique (1996) DVDRip от ExKinoRay | D, P, A

15 | 3

2 ГБ

В этой теме нет новых непрочитанных сообщений. Infernal: Дьявольщина (2007) PC | Лицензия

233 | 30

4.23 ГБ

В этой теме нет новых непрочитанных сообщений. Око за око / Eye for an Eye (1996) WEB-DLRip-AVC от k.e.n & MegaPeer | P2, A

20 | 0

2.18 ГБ

В этой теме нет новых непрочитанных сообщений. Котенок (1996) BDRip от MegaPeer | JPN Transfer

17 | 0

1.46 ГБ

В этой теме нет новых непрочитанных сообщений. Гонин 2 / Gonin 2 (1996) HDRip от MegaPeer | P2

93 | 15

1.46 ГБ




Вы не можете начинать темы
Вы не можете отвечать на сообщения
Вы не можете редактировать свои сообщения
Вы не можете удалять свои сообщения
Вы не можете добавлять вложения

Перейти:  
Для Мосгорсуда, Роскомнадзора и рекламодателей: mosgorsud-torrent[собачка]yandex.ru
 Вход
ppkBB3cker v.2 © 2008-2014 @ PPK
[ Time : 0.040s | 18 Queries | GZIP : Off ]

cron