Alex Nesic
Musetta Vander
img image001 image001 image001 image001 image001 image001 image001 image001 image001 image001 image001 image001 image001 image001 image001 image001
Planets Sun Sun Sun
Статистика раздачи
Автор: Nickolas3434 | Размер: 2.16 ГБ | Добавлен: 06 июл 2017
Раздают: 4    Качают: 0
Скачать торрент
Скачать торрент
Описание торрента

СообщениеДобавлено: 06 июл 2017 

Информация о фильме
Название: Газонокосильщик 2: За пределами киберпространства
Оригинальное название: Lawnmower Man 2: Beyond Cyberspace
Год выпуска: 1996
Жанр: фантастика, боевик, триллер
Продолжительность: 01:33:04
Режиссер: Фархад Манн
В ролях: Патрик Бергин, Мэтт Фрюэр, Остин О’Брайен, Эли Пугет, Камилль Купер, Патрик ЛаБрек, Кристал Селеста Грант, Шон П. Янг
Описание: Косильщик лужаек Джоуб не погиб в пламени, а стал обитателем виртуальной реальности и приступил к работе над созданием новой компьютерной системы — глобальной сети, связывающей все компьютеры так, чтобы было невозможно из нее высвободиться. Безумный Джоуб пытается воссоздать открытие своего «создателя», учёного Бенджамина Трэйса — универсальный компьютерный чип...

Страна: США
Производство: New Line Cinema, Savoy Pictures, Lane Pringle Productions, Fuji Eight Company Ltd., August Entertainment
Перевод: Профессиональный (многоголосый, закадровый), профессиональный (двухголосый, закадровый), авторский (одноголосый, закадровый)
Субтитры: русские, английские
Файл
Качество: WEB-DLRip-AVC
Контейнер: МКV
Видео: AVC, 1024x428 (2.35:1), 23.976 fps, 2 108 Kbps (0.201 bit/pixel)
Аудио #1: AC-3, 48.0 KHz, 2 ch, 192 Kbps, CBR (Russian) | MVO / R5
Аудио #2: AC-3, 48.0 KHz, 2 ch, 192 Kbps, CBR (Russian) | DVO / НТВ
Аудио #3: AC-3, 48.0 KHz, 2 ch, 192 Kbps, CBR (Russian) | АVO / Сергей Визгунов
Аудио #4: AC-3, 48.0 KHz, 2 ch, 192 Kbps, CBR (Russian) | АVO / Павел Санаев
Аудио #5: AC-3, 48.0 KHz, 6 ch, 448 Kbps, CBR (English)
Релиз: &
Формат : Matroska
Версия формата : Version 2
Размер файла : 2,16 Гбайт
Продолжительность : 1 ч. 33 м.
Общий поток : 3324 Кбит/сек
Название фильма :
Дата кодирования : UTC 2017-06-26 07:36:14
Программа кодирования : mkvmerge v5.3.0 ('I could have danced') built on Feb 9 2012 10:38:07
Библиотека кодирования : libebml v1.2.3 + libmatroska v1.3.0
Attachments : poster (7).jpg
Видео
Идентификатор : 1
Формат : AVC
Формат/Информация : Advanced Video Codec
Профиль формата : [email protected]
Параметр CABAC формата : Да
Параметр ReFrames формата : 12 кадров
Идентификатор кодека : V_MPEG4/ISO/AVC
Продолжительность : 1 ч. 33 м.
Битрейт : 2108 Кбит/сек
Ширина : 1024 пикселя
Высота : 428 пикселей
Соотношение сторон : 2,40:1
Режим частоты кадров : Постоянный
Частота кадров : 23,976 (24000/1001) кадра/сек
Цветовое пространство : YUV
Субдискретизация насыщенности : 4:2:0
Битовая глубина : 8 бит
Тип развёртки : Прогрессивная
Бит/(Пиксели*Кадры) : 0.201
Размер потока : 1,33 Гбайт (61%)
Библиотека кодирования : x264 core 146 r2538 121396c
Настройки программы : cabac=1 / ref=12 / deblock=1:-3:-3 / analyse=0x3:0x133 / me=umh / subme=11 / psy=1 / psy_rd=1.00:0.00 / mixed_ref=1 / me_range=32 / chroma_me=1 / trellis=2 / 8x8dct=1 / cqm=0 / deadzone=21,11 / fast_pskip=0 / chroma_qp_offset=-2 / threads=12 / lookahead_threads=3 / sliced_threads=0 / nr=0 / decimate=0 / interlaced=0 / bluray_compat=0 / constrained_intra=0 / bframes=11 / b_pyramid=2 / b_adapt=2 / b_bias=0 / direct=3 / weightb=1 / open_gop=0 / weightp=2 / keyint=240 / keyint_min=23 / scenecut=40 / intra_refresh=0 / rc=2pass / mbtree=0 / bitrate=2108 / ratetol=1.0 / qcomp=0.60 / qpmin=0 / qpmax=69 / qpstep=4 / cplxblur=20.0 / qblur=0.5 / ip_ratio=1.40 / pb_ratio=1.30 / aq=1:0.70
Язык : English
Default : Да
Forced : Нет
Аудио #1
Идентификатор : 2
Формат : AC-3
Формат/Информация : Audio Coding 3
Расширение режима : CM (complete main)
Параметр Endianness формата : Big
Идентификатор кодека : A_AC3
Продолжительность : 1 ч. 33 м.
Вид битрейта : Постоянный
Битрейт : 192 Кбит/сек
Каналы : 2 канала
Расположение каналов : Front: L R
Частота : 48,0 КГц
Частота кадров : 31,250 кадров/сек (1536 spf)
Битовая глубина : 16 бит
Метод сжатия : С потерями
Размер потока : 128 Мбайт (6%)
Заголовок : Профессиональный многоголосый (R5)
Язык : Russian
Default : Да
Forced : Нет
Аудио #2
Идентификатор : 3
Формат : AC-3
Формат/Информация : Audio Coding 3
Расширение режима : CM (complete main)
Параметр Endianness формата : Big
Идентификатор кодека : A_AC3
Продолжительность : 1 ч. 33 м.
Вид битрейта : Постоянный
Битрейт : 192 Кбит/сек
Каналы : 2 канала
Расположение каналов : Front: L R
Частота : 48,0 КГц
Частота кадров : 31,250 кадров/сек (1536 spf)
Битовая глубина : 16 бит
Метод сжатия : С потерями
Размер потока : 128 Мбайт (6%)
Заголовок : Профессиональный двухголосый (НТВ)
Язык : Russian
Default : Нет
Forced : Нет
Аудио #3
Идентификатор : 4
Формат : AC-3
Формат/Информация : Audio Coding 3
Расширение режима : CM (complete main)
Параметр Endianness формата : Big
Идентификатор кодека : A_AC3
Продолжительность : 1 ч. 33 м.
Вид битрейта : Постоянный
Битрейт : 192 Кбит/сек
Каналы : 2 канала
Расположение каналов : Front: L R
Частота : 48,0 КГц
Частота кадров : 31,250 кадров/сек (1536 spf)
Битовая глубина : 16 бит
Метод сжатия : С потерями
Размер потока : 128 Мбайт (6%)
Заголовок : Авторский Сергей Визгунов
Язык : Russian
Default : Нет
Forced : Нет
Аудио #4
Идентификатор : 5
Формат : AC-3
Формат/Информация : Audio Coding 3
Расширение режима : CM (complete main)
Параметр Endianness формата : Big
Идентификатор кодека : A_AC3
Продолжительность : 1 ч. 33 м.
Вид битрейта : Постоянный
Битрейт : 192 Кбит/сек
Каналы : 2 канала
Расположение каналов : Front: L R
Частота : 48,0 КГц
Частота кадров : 31,250 кадров/сек (1536 spf)
Битовая глубина : 16 бит
Метод сжатия : С потерями
Размер потока : 128 Мбайт (6%)
Заголовок : Авторский Павел Санаев
Язык : Russian
Default : Нет
Forced : Нет
Аудио #5
Идентификатор : 6
Формат : AC-3
Формат/Информация : Audio Coding 3
Расширение режима : CM (complete main)
Параметр Endianness формата : Big
Идентификатор кодека : A_AC3
Продолжительность : 1 ч. 33 м.
Вид битрейта : Постоянный
Битрейт : 448 Кбит/сек
Каналы : 6 каналов
Расположение каналов : Front: L C R, Side: L R, LFE
Частота : 48,0 КГц
Частота кадров : 31,250 кадров/сек (1536 spf)
Битовая глубина : 16 бит
Метод сжатия : С потерями
Размер потока : 298 Мбайт (13%)
Заголовок : оригинал
Язык : English
Default : Нет
Forced : Нет
Текст #1
Идентификатор : 7
Формат : UTF-8
Идентификатор кодека : S_TEXT/UTF8
Идентификатор кодека/Информация : UTF-8 Plain Text
Язык : Russian
Default : Нет
Forced : Нет
Текст #2
Идентификатор : 8
Формат : UTF-8
Идентификатор кодека : S_TEXT/UTF8
Идентификатор кодека/Информация : UTF-8 Plain Text
Язык : English
Default : Нет
Forced : Нет
Меню
00:00:00.000 : en:Title/Being Digital
00:07:07.000 : en:Hotwiring The Future
00:14:58.000 : en:Virtually There
00:19:08.000 : en:Without A Trace
00:23:21.000 : en:Kid Geniuses
00:26:31.000 : en:Cyber Rider
00:29:22.000 : en:Loose Caboose
00:34:52.000 : en:Public Access
00:39:05.000 : en:Autopilot
00:42:23.000 : en:Out Of Memory
00:46:32.000 : en:Unauthorized Files
00:51:15.000 : en:Security Breach
00:59:27.000 : en:Medical Attention
01:01:53.000 : en:An Exact Replica
01:03:51.000 : en:Presidential Address
01:07:05.000 : en:Target Market
01:10:27.000 : en:Chaos Theory
01:13:20.000 : en:Business Loss
01:16:45.000 : en:Alternate Route
01:19:02.000 : en:System Overload
01:25:16.000 : en:Goodbye, Mr. Chip
01:27:54.000 : en:End Credits

Скриншоты:



   Похожие торренты   Торрент   Размер 
В этой теме нет новых непрочитанных сообщений. Газонокосильщик 2: За пределами киберпространства / Lawnmower Man 2: Beyond Cyberspace (1996) WEB-DLRip | Р2

0 | 0

1.45 ГБ

В этой теме нет новых непрочитанных сообщений. Газонокосильщик 2: За пределами киберпространства / Lawnmower Man 2: Beyond Cyberspace (1996) DVDRip

98 | 10

1.37 ГБ

В этой теме нет новых непрочитанных сообщений. Газонокосильщик 2: За пределами киберпространства / Lawnmower Man 2: Beyond Cyberspace (1996) DVDRip

1 | 5

699.95 МБ

В этой теме нет новых непрочитанных сообщений. Газонокосильщик 2: За пределами киберпространства / Lawnmower Man 2: Beyond Cyberspace (1996) WEB-DL 720p | Р, Р2, А

1 | 0

3.33 ГБ

В этой теме нет новых непрочитанных сообщений. Газонокосильщик / The Lawnmower Man (1992) BDRip 720p от k.e.n & MegaPeer | P | Directors Cut

11 | 0

7.76 ГБ

В этой теме нет новых непрочитанных сообщений. Газонокосильщик / The Lawnmower Man (1992) DVDRip от RAMpage CHG

50 | 4

701.91 МБ

В этой теме нет новых непрочитанных сообщений. Газонокосильщик / The Lawnmower Man (1992) BDRip-AVC от Rulya74

53 | 3

2.18 ГБ




Вы не можете начинать темы
Вы не можете отвечать на сообщения
Вы не можете редактировать свои сообщения
Вы не можете удалять свои сообщения
Вы не можете добавлять вложения

Перейти:  
Для Мосгорсуда, Роскомнадзора и рекламодателей: mosgorsud-torrent[собачка]yandex.ru
 Вход
ppkBB3cker v.2 © 2008-2014 @ PPK
[ Time : 3.361s | 18 Queries | GZIP : Off ]

cron