img image001 image001 image001 image001 image001 image001 image001 image001 image001 image001 image001 image001 image001 image001 image001

Planets Sun Sun Sun
Статистика раздачи
Автор: Nickolas3434 | Размер: 22.61 ГБ | Добавлен: 15 окт 2017
Раздают: 3    Качают: 4
Скачать торрент
Скачать торрент
Описание торрента

СообщениеДобавлено: 15 окт 2017 

Информация о фильме
Название: Скорпион: Песня ненависти №701
Оригинальное название: Joshû sasori: 701-gô urami-bushi
Год выхода: 1973
Жанр: триллер, драма, криминал
Режиссер: Ясухару Хасэбэ
В ролях: Мэйко Кадзи, Масаказу Тамура, Яёи Ватанабэ, Санаэ Накахара, Акэми Нэгиси, Тосиюки Хосокава, Котоэ Хацуи, Акико Кудзи, Каору Кусуда, Акико Мори, Фумиэ Сё, Юко Тадзава, Мидори Ямамото и др.
Описание: По следу неуловимой Нами идёт полицейский-психопат. Его команда почти арестовывает героиню, но та снова скрывается, хотя и получив ранение. Убежище «Скорпион» находит у некогда искалеченного полицией (тем самым психопатом) бывшего деятеля радикального движения.

Страна: Япония
Продолжительность: 01:28:36
Перевод: Любительский (одноголосый закадровый) Олег Воротилин по субтитрам gnum1111
Субтитры: русские gnum1111, английские
Оригинальная аудиодорожка: японский
Файл
Качество: BDRemux 1080р
Видео: AVC / 1920x1080 / 16:9 / 23.976 fps / 34979 Kbps / [email protected]
Аудио 1: Rus / AC3 / 48.0 KHz / 1.0 / 192kbps / VO / О. Воротилин
Аудио 2: Rus / FLAC / 48.0 KHz / 1.0 / 680kbps / 24 bit / VO / О. Воротилин
Аудио 3: Jap / FLAC / 48.0 KHz / 1.0 / 678kbps / 24 bit

Общее
Уникальный идентификатор : 230748883734922627195885137253498656739 (0xAD989E54D474A9C6AA3DB127014C97E3)
Полное имя : E:porvaliparusFemale.Prisoner.Scorpion.The.Complete.CollectionFemale.Prisoner.Scorpion.701s.Grudge.Song.1973.BDRemux.1080p.mkv
Формат : Matroska
Версия формата : Version 4 / Version 2
Размер файла : 22,6 Гбайт
Продолжительность : 1 ч. 28 м.
Режим общего битрейта : Переменный
Общий поток : 36,5 Мбит/сек
Название фильма : Female.Prisoner.Scorpion.701s.Grudge.Song.1973.BDRemux.1080p-porvaliparus
Дата кодирования : UTC 2017-10-15 01:17:11
Программа кодирования : mkvmerge v17.0.0 ('Be Ur Friend') 64-bit
Библиотека кодирования : libebml v1.3.5 + libmatroska v1.4.8
Видео
Идентификатор : 1
Формат : AVC
Формат/Информация : Advanced Video Codec
Профиль формата : [email protected]
Настройки формата : CABAC / 3 Ref Frames
Параметр CABAC формата : Да
Параметр RefFrames формата : 3 кадра
Идентификатор кодека : V_MPEG4/ISO/AVC
Продолжительность : 1 ч. 28 м.
Вид битрейта : Переменный
Битрейт : 35,0 Мбит/сек
Максимальный битрейт : 38,0 Мбит/сек
Ширина : 1920 пикселей
Высота : 1080 пикселей
Соотношение сторон : 16:9
Режим частоты кадров : Постоянный
Частота кадров : 23,976 (24000/1001) кадра/сек
Цветовое пространство : YUV
Субдискретизация насыщенности : 4:2:0
Битовая глубина : 8 бит
Тип развёртки : Прогрессивная
Бит/(Пиксели*Кадры) : 0.704
Размер потока : 21,6 Гбайт (96%)
Заголовок : Female.Prisoner.Scorpion.701s.Grudge.Song.1973.BDRemux.1080p
Библиотека кодирования : x264 core 128 r2216 198a7ea
Настройки программы : cabac=1 / ref=4 / deblock=0:-1:-1 / analyse=0x3:0x133 / me=umh / subme=10 / psy=1 / psy_rd=1.00:0.15 / mixed_ref=1 / me_range=24 / chroma_me=1 / trellis=2 / 8x8dct=1 / cqm=1 / deadzone=21,11 / fast_pskip=1 / chroma_qp_offset=-3 / threads=12 / lookahead_threads=2 / sliced_threads=0 / slices=4 / nr=0 / decimate=1 / interlaced=0 / bluray_compat=1 / constrained_intra=0 / bframes=3 / b_pyramid=1 / b_adapt=2 / b_bias=0 / direct=3 / weightb=1 / open_gop=1 / weightp=1 / keyint=24 / keyint_min=1 / scenecut=40 / intra_refresh=0 / rc_lookahead=24 / rc=abr / mbtree=1 / bitrate=35000 / ratetol=1.0 / qcomp=0.60 / qpmin=4 / qpmax=69 / qpstep=4 / vbv_maxrate=38000 / vbv_bufsize=28500 / nal_hrd=vbr / ip_ratio=1.40 / aq=1:1.00
Default : Да
Forced : Нет
Цветовой диапазон : Limited
Основные цвета : BT.709
Характеристики трансфера : BT.709
Коэффициенты матрицы : BT.709
Аудио #1
Идентификатор : 2
Формат : AC-3
Формат/Информация : Audio Coding 3
Параметр Endianness формата : Big
Идентификатор кодека : A_AC3
Продолжительность : 1 ч. 28 м.
Вид битрейта : Постоянный
Битрейт : 192 Кбит/сек
Каналы : 1 канал
Расположение каналов : Front: C
Частота : 48,0 КГц
Частота кадров : 31,250 кадров/сек (1536 SPF)
Битовая глубина : 16 бит
Метод сжатия : С потерями
Размер потока : 122 Мбайт (1%)
Заголовок : VO [О. Воротилин]
Язык : Russian
Default : Да
Forced : Нет
Аудио #2
Идентификатор : 3
Формат : FLAC
Формат/Информация : Free Lossless Audio Codec
Идентификатор кодека : A_FLAC
Продолжительность : 1 ч. 28 м.
Вид битрейта : Переменный
Битрейт : 680 Кбит/сек
Каналы : 1 канал
Расположение каналов : Front: C
Частота : 48,0 КГц
Частота кадров : 11,719 кадров/сек (4096 SPF)
Битовая глубина : 24 бит
Размер потока : 431 Мбайт (2%)
Заголовок : VO [О. Воротилин]
Библиотека кодирования : libFLAC 20080709 (UTC 2008-07-09)
Язык : Russian
Default : Нет
Forced : Нет
Аудио #3
Идентификатор : 4
Формат : FLAC
Формат/Информация : Free Lossless Audio Codec
Идентификатор кодека : A_FLAC
Продолжительность : 1 ч. 28 м.
Вид битрейта : Переменный
Битрейт : 678 Кбит/сек
Каналы : 1 канал
Расположение каналов : Front: C
Частота : 48,0 КГц
Частота кадров : 11,719 кадров/сек (4096 SPF)
Битовая глубина : 24 бит
Размер потока : 430 Мбайт (2%)
Библиотека кодирования : libFLAC 1.2.1 (UTC 2007-09-17)
Язык : Japanese
Default : Нет
Forced : Нет
Текст #1
Идентификатор : 5
Формат : UTF-8
Идентификатор кодека : S_TEXT/UTF8
Идентификатор кодека/Информация : UTF-8 Plain Text
Продолжительность : 1 ч. 28 м.
Битрейт : 35 бит/сек
ElementCount : 420
Размер потока : 22,8 Кбайт (0%)
Заголовок : [gnum1111]
Язык : Russian
Default : Нет
Forced : Нет
Текст #2
Идентификатор : 6
Формат : UTF-8
Идентификатор кодека : S_TEXT/UTF8
Идентификатор кодека/Информация : UTF-8 Plain Text
Продолжительность : 1 ч. 28 м.
Битрейт : 23 бит/сек
ElementCount : 432
Размер потока : 15,2 Кбайт (0%)
Язык : English
Default : Нет
Forced : Нет
Меню
00:00:00.000 : en:00:00:00.000
00:07:49.928 : en:00:07:49.928
00:14:37.043 : en:00:14:37.043
00:23:09.471 : en:00:23:09.471
00:29:38.986 : en:00:29:38.986
00:37:45.597 : en:00:37:45.597
00:44:26.831 : en:00:44:26.831
00:51:21.412 : en:00:51:21.412
00:56:46.987 : en:00:56:46.987
01:05:20.416 : en:01:05:20.416
01:16:32.338 : en:01:16:32.338
01:20:31.910 : en:01:20:31.910



   Похожие торренты   Торрент   Размер 
В этой теме нет новых непрочитанных сообщений. Заключенная №701: Скорпион / Joshû 701-gô: Sasori (1972) BDRemux 1080р | A

5 | 4

21.83 ГБ

В этой теме нет новых непрочитанных сообщений. Скорпион: Барак № 41 / Joshû sasori: Dai-41 zakkyo-bô (1972) BDRemux 1080р | L1

2 | 0

22.25 ГБ

В этой теме нет новых непрочитанных сообщений. Скорпион: Барак № 41 / Joshû sasori: Dai-41 zakkyo-bô (1972) BDRip | A

3 | 2

1.45 ГБ

В этой теме нет новых непрочитанных сообщений. Скорпион: Клетка для зверя / Joshuu sasori: Kemono-beya (1973) DVDRip от ExKinoRay

0 | 12

1.37 ГБ

В этой теме нет новых непрочитанных сообщений. Скорпион / Sasori (2008) DVDRip

0 | 2

853.6 МБ

В этой теме нет новых непрочитанных сообщений. Скорпион / Sasori (2008) BDRip от R.G. Mega Best | L1

6 | 4

1.37 ГБ

В этой теме нет новых непрочитанных сообщений. Скорпион / Scorpio (1973) BDRemux 1080p | P

0 | 0

27.17 ГБ




Вы не можете начинать темы
Вы не можете отвечать на сообщения
Вы не можете редактировать свои сообщения
Вы не можете удалять свои сообщения
Вы не можете добавлять вложения

Перейти:  
Для Мосгорсуда, Роскомнадзора и рекламодателей: mosgorsud-torrent[собачка]yandex.ru
 Вход
ppkBB3cker v.2 © 2008-2014 @ PPK
[ Time : 0.070s | 19 Queries | GZIP : Off ]

cron