img image001 image001 image001 image001 image001 image001 image001 image001 image001 image001 image001 image001 image001 image001 image001

Planets Sun Sun Sun
Статистика раздачи
Автор: Nickolas3434 | Размер: 1.37 ГБ | Добавлен: 03 ноя 2017
Раздают: 0    Качают: 0
Скачать торрент
Скачать торрент
Описание торрента

СообщениеДобавлено: 03 ноя 2017 

Счастливого дня смерти / Happy Death Day
Страна: США
Производство: Blumhouse Productions, Digital Riot Media, Vesuvius Productions
Год выпуска: 2017
Жанр: ужасы, триллер, детектив, комедия
Продолжительность: 01:35:53
Режиссер: Кристофер Лэндон
Автор сценария: Скотт Лобделл
В ролях: Джессика Рот, Израэль Бруссар, Руби Модин, Лаура Клифтон, Джейсон Бэйл, Роб Мелло, Рэйчел Мэттьюз, Фи Ву
Описание: Каждый в универе мечтал попасть на её день рождения, но праздник был безнадежно испорчен незнакомцем в маске, убившим виновницу торжества. Однако судьба преподнесла имениннице леденящий душу подарок — бесконечный запас жизней. И теперь у девушки появился шанс вычислить своего убийцу, ведь этот день будет повторяться снова и снова…

Перевод: Любительский (многоголосый, закадровый) | студия Paradox & Omskbird records
Субтитры: иероглифы (вшитые)

Качество: WEBRip
Формат: АVI
Видео кодек: XviD
Аудио кодек: АС3
Видео: 720x288 (2.500), 25.000 fps, XviD ~1 841 kbps avg
Аудио: 48.0 kHz, AC3 Dolby Digital, 2/0 (L,R) ch, ~192 kbps
Дата премьеры (мир): 7 октября 2017
Дата премьеры (РФ): 30 ноября 2017, «UPI»

General
Complete name : Happy Death Day.avi
Format : AVI
Format/Info : Audio Video Interleave
File size : 1.37 GiB
Duration : 1h 35mn
Overall bit rate : 2 043 Kbps
Writing application : VirtualDubMod 1.5.10.3 | (build 2550/release)
Video
ID : 0
Format : MPEG-4 Visual
Format profile : Advanced [email protected]
Format settings, BVOP : 2
Format settings, QPel : No
Format settings, GMC : No warppoints
Format settings, Matrix : Custom
Codec ID : XVID
Codec ID/Hint : XviD
Duration : 1h 35mn
Bit rate : 1 841 Kbps
Width : 720 pixels
Height : 288 pixels
Display aspect ratio : 2.500
Frame rate : 25.000 fps
Color space : YUV
Chroma subsampling : 4:2:0
Bit depth : 8 bits
Scan type : Progressive
Compression mode : Lossy
Bits/(Pixel*Frame) : 0.355
Stream size : 1.23 GiB (90%)
Writing library : XviD 1.2.1 (UTC 2008-12-04)
Audio
ID : 1
Format : AC-3
Format/Info : Audio Coding 3
Mode extension : CM (complete main)
Format settings, Endianness : Big
Codec ID : 2000
Duration : 1h 35mn
Bit rate mode : Constant
Bit rate : 192 Kbps
Channel(s) : 2 channels
Channel positions : Front: L R
Sampling rate : 48.0 KHz
Compression mode : Lossy
Stream size : 132 MiB (9%)
Alignment : Split accross interleaves
Interleave, duration : 40 ms (1.00 video frame)
Interleave, preload duration : 500 ms



   Похожие торренты   Торрент   Размер 
В этой теме нет новых непрочитанных сообщений. Счастливого дня смерти / Happy Death Day (2017) WEBRip 1080p | Трейлер

41 | 4

219.96 МБ

В этой теме нет новых непрочитанных сообщений. Счастливого дня смерти / Happy Death Day (2017) HDRip | P, L

1110 | 37

1.33 ГБ

В этой теме нет новых непрочитанных сообщений. Счастливого дня смерти / Happy Death Day (2017) HDTVRip | L

1 | 0

1.36 ГБ

В этой теме нет новых непрочитанных сообщений. Счастливого дня смерти / Happy Death Day (2017) HDTV 720p | L

3 | 0

2.79 ГБ

В этой теме нет новых непрочитанных сообщений. Счастливого дня смерти / Happy Death Day (2017) HDRip-AVC от ExKinoRay | P

441 | 26

743.37 МБ

В этой теме нет новых непрочитанных сообщений. Счастливого дня смерти / Happy Death Day (2017) HDTV 1080p | L

710 | 26

3.66 ГБ

В этой теме нет новых непрочитанных сообщений. Счастливого дня смерти / Happy Death Day (2017) BDRemux 1080p | P, L

0 | 0

24.3 ГБ




Вы не можете начинать темы
Вы не можете отвечать на сообщения
Вы не можете редактировать свои сообщения
Вы не можете удалять свои сообщения
Вы не можете добавлять вложения

Перейти:  
Для Мосгорсуда, Роскомнадзора и рекламодателей: mosgorsud-torrent[собачка]yandex.ru
 Вход
ppkBB3cker v.2 © 2008-2014 @ PPK
[ Time : 0.064s | 18 Queries | GZIP : Off ]

cron