img image001 image001 image001 image001 image001 image001 image001 image001 image001 image001 image001 image001 image001 image001 image001

Planets Sun Sun Sun
Статистика раздачи
Автор: Nickolas3434 | Размер: 1.45 ГБ | Добавлен: 23 ноя 2017
Раздают: 26    Качают: 1
Скачать торрент
Скачать торрент
Описание торрента

СообщениеДобавлено: 23 ноя 2017 

Информация о фильме
Название: Белый плен
Оригинальное название: Eight Below
Год выхода: 2006
Жанр: Драма, приключения, семейный
Режиссер: Фрэнк Маршалл
В ролях: Пол Уокер, Брюс Гринвуд, Мун Бладгуд, Венди Крюсон, Джерард Планкет, Аугуст Шелленберг, Джейсон Биггз, Д.Дж., Тимба, Кода
О фильме:
Основано на реальных событиях. Действие фильма разворачивается на бескрайних просторах Антарктики. Научная экспедиция, в состав которой входят Джерри Шепард, его лучший друг Купер и геолог, отправляется на поиски метеорита. Однако неожиданное происшествие и тяжелые погодные условия вынуждают их оставить свои собачьи упряжки и вернуться назад. И теперь восемь собак должны в течение шести месяцев бороться за выживание в ледяной пустыне и ждать, пока их спасут…

Страна: США
Студия: Walt Disney Pictures, Spyglass Entertainment, Mandeville Films
Продолжительность: 02:00:41
Перевод: Профессиональный (дублированный) Blu-ray CEE
Файл
Кодек: x264
Качество: WEB-DLRip-AVC
Видео: [email protected], ~1337 Кбит/с, 818x460, 23.976 кадр/с
Аудио: AC3, 6 ch, 384 Кбит/с
Субтитры: Russian (Captions, Full, Commentary), English (Full, SDH)
General
Unique ID : 119124024042226019674802270284484376712 (0x599E73D708461D65C846724525B2F888)
Complete name : D:Белый плен_WEB-DLRip-AVC_Open Matte_[-=DoMiNo=-].mkv
Format : Matroska
Format version : Version 4 / Version 2
File size : 1.45 GiB
Duration : 2 h 0 min
Overall bit rate : 1 723 kb/s
Movie name : Белый плен
Deion : Действие фильма разворачивается на бескрайних просторах Антарктики. Научная экспедиция, в состав которой входят Джерри Шепард, его лучший друг Купер и геолог, отправляется на поиски метеорита. / / Однако неожиданное происшествие и тяжелые погодные условия вынуждают их оставить свои собачьи упряжки и вернуться назад. И теперь восемь собак должны в течение шести месяцев бороться за выживание в ледяной пустыне и ждать, пока их спасут…
Writing application : XviD4PSP 7.0.426 DAILY
Writing library : Lavf57.71.100
ErrorDetectionType : Per level 1
Attachments : poster.jpg
ACTORS : Пол Уокер, Брюс Гринвуд, Мун Бладгуд, Венди Крюсон, Джерард Планкет, Аугуст Шелленберг, Джейсон Биггз, Д.Дж., Тимба, Кода, Джасмин, Апач, Бак, Ноубл, Тройка, Флэпджек, Дино, Ситка, Чейз, Флойд, Райан, Джаспер, Лайтнинг, Белинда Мец, Коннор Кристофер Левинс, Дункан Фрайзер, Дэн Циски, Майкл Дэвид Симс, Дэниэл Бэйкон, Лаара Сэдик, Малкольм Стюарт, Декстер Белл, Гари Чок, Бренда Кэмпбелл, Майкл Адамуэйт, Бадди Кэйн, Дэймон Джонсон, Ричард Сали, Пану, Меган МакКиннон, Леви Вудс
COMPOSER : Марк Айшем
COUNTRY : США
DATE : 2005
DIRECTOR : Фрэнк Маршалл
ENCODING_INFO : MATROSKA,WEBM > MKV Пользовательский / H264 > X264 VBR-2P 1337kbps Пользовательский / AC3 > AC3 CBR 384kbps
GENRE : драма, приключения, семейный
HD_VIDEO : 1
IMDB_RATING : 7.30
ITUNEXTC : mpaa|PG|200|
Language : und
MEDIA_TYPE : 9
ORIGINAL_ACTORS : Paul Walker, Bruce Greenwood, Moon Bloodgood, Wendy Crewson, Gerard Plunkett, August Schellenberg, Jason Biggs, D.J., Timba, Koda (в титрах: Koda Bear), Jasmin, Apache, Buck, Noble, Troika, Flapjack, Dino, Sitka, Chase, Floyd, Ryan, Jasper, Lightning, Belinda Metz, Connor Christopher Levins, Duncan Fraser, Dan Ziskie, Michael David Simms, Daniel Bacon, Laara Sadiq (в титрах: Laara Sadig), Malcolm Stewart, Dexter Bell, Gary Chalk, Brenda Campbell, Michael Adamthwaite, Buddy Cain, Damon Johnson, Richard Sali, Panou, Megan McKinnon, Levi Woods
ORIGINAL_TITLE : Eight Below
PRODUCER : Патрик Краули, Дэвид Хоберман, Гари Барбер, Роджер Бирнбаум, Кристин Исо, Масару Какутани, Рой Ли, Тодд Либерман, Фрэнк Маршалл
RATING : 8.129
WRITER : Дэвид ДиДжилио, Тосиро Исидо, Корэёси Курахара, Тацуо Ногами, Сусуму Садзи
Video
ID : 1
Format : AVC
Format/Info : Advanced Video Codec
Format profile : [email protected]
Format settings : CABAC / 11 Ref Frames
Format settings, CABAC : Yes
Format settings, ReFrames : 11 frames
Codec ID : V_MPEG4/ISO/AVC
Duration : 2 h 0 min
Bit rate : 1 337 kb/s
Width : 818 pixels
Height : 460 pixels
Display aspect ratio : 16:9
Frame rate mode : Constant
Frame rate : 23.976 (24000/1001) FPS
Color space : YUV
Chroma subsampling : 4:2:0
Bit depth : 8 bits
Scan type : Progressive
Bits/(Pixel*Frame) : 0.148
Stream size : 1.10 GiB (76%)
Title : RIP_BY_-=DoMiNo=-
Writing library : x264 core 152 r2851M ba24899
Encoding settings : cabac=1 / ref=11 / deblock=1:-3:-3 / analyse=0x3:0x133 / me=umh / subme=10 / psy=1 / psy_rd=1.00:0.05 / mixed_ref=1 / me_range=32 / chroma_me=1 / trellis=2 / 8x8dct=1 / cqm=0 / deadzone=21,11 / fast_pskip=1 / chroma_qp_offset=-3 / threads=6 / lookahead_threads=1 / sliced_threads=0 / nr=0 / decimate=1 / interlaced=0 / bluray_compat=0 / constrained_intra=0 / bframes=12 / b_pyramid=2 / b_adapt=2 / b_bias=0 / direct=3 / weightb=1 / open_gop=0 / weightp=2 / keyint=240 / keyint_min=24 / scenecut=40 / intra_refresh=0 / rc_lookahead=60 / rc=2pass / mbtree=1 / bitrate=1337 / ratetol=1.0 / qcomp=0.65 / qpmin=0 / qpmax=69 / qpstep=4 / cplxblur=20.0 / qblur=0.5 / ip_ratio=1.40 / aq=1:1.00
Language : English
Default : Yes
Forced : No
Color range : Limited
Color primaries : BT.709
Transfer characteristics : BT.709
Matrix coefficients : BT.709
Audio
ID : 2
Format : AC-3
Format/Info : Audio Coding 3
Codec ID : A_AC3
Duration : 2 h 0 min
Bit rate mode : Constant
Bit rate : 384 kb/s
Channel(s) : 6 channels
Channel positions : Front: L C R, Side: L R, LFE
Sampling rate : 48.0 kHz
Frame rate : 31.250 FPS (1536 SPF)
Bit depth : 16 bits
Compression mode : Lossy
Stream size : 332 MiB (22%)
Title : AC3 5.1 384Kbps (Дубляж - BluRay)
Language : Russian
Service kind : Complete Main
Default : Yes
Forced : No
Text #1
ID : 3
Format : UTF-8
Codec ID : S_TEXT/UTF8
Codec ID/Info : UTF-8 Plain Text
Duration : 1 h 54 min
Title : Captions
Language : Russian
Default : Yes
Forced : No
Text #2
ID : 4
Format : UTF-8
Codec ID : S_TEXT/UTF8
Codec ID/Info : UTF-8 Plain Text
Duration : 1 h 54 min
Title : Full, BluRay
Language : Russian
Default : No
Forced : No
Text #3
ID : 5
Format : UTF-8
Codec ID : S_TEXT/UTF8
Codec ID/Info : UTF-8 Plain Text
Duration : 1 h 52 min
Title : Full, BluRay
Language : English
Default : No
Forced : No
Text #4
ID : 6
Format : UTF-8
Codec ID : S_TEXT/UTF8
Codec ID/Info : UTF-8 Plain Text
Duration : 1 h 52 min
Title : Full, SDH. Amazon
Language : English
Default : No
Forced : No
Text #5
ID : 7
Format : UTF-8
Codec ID : S_TEXT/UTF8
Codec ID/Info : UTF-8 Plain Text
Duration : 1 h 52 min
Title : Commentary by Frank Marshall and Patrick Crowley
Language : Russian
Default : No
Forced : No
Text #6
ID : 8
Format : UTF-8
Codec ID : S_TEXT/UTF8
Codec ID/Info : UTF-8 Plain Text
Duration : 1 h 53 min
Title : Commentary by Frank Marshall and Paul Walker
Language : Russian
Default : No
Forced : No



   Похожие торренты   Торрент   Размер 
В этой теме нет новых непрочитанных сообщений. Белый плен / Eight Below (2006) WEB-DLRip от Scarabey | Open Matte | D

26 | 6

1.45 ГБ

В этой теме нет новых непрочитанных сообщений. Белый плен / Eight Below (2006) WEB-DL 1080p | D, A | Open Matte

12 | 1

11.03 ГБ

В этой теме нет новых непрочитанных сообщений. Белый плен / Eight Below (2006) BDRip 720p | Open Matte | D

49 | 5

4.37 ГБ

В этой теме нет новых непрочитанных сообщений. Белый плен / Eight Below (2006) WEB-DLRip-AVC от MediaClub | D, A

6 | 0

2.84 ГБ

В этой теме нет новых непрочитанных сообщений. Белый плен / Eight Below (2006) Blu-Ray

13 | 20

21.22 ГБ

В этой теме нет новых непрочитанных сообщений. Белый плен / Eight Below (2006) DVD9 | D

9 | 3

7.8 ГБ

В этой теме нет новых непрочитанных сообщений. Белый плен / Eight Below (2006) BD Remux

6 | 2

21.29 ГБ




Вы не можете начинать темы
Вы не можете отвечать на сообщения
Вы не можете редактировать свои сообщения
Вы не можете удалять свои сообщения
Вы не можете добавлять вложения

Перейти:  
Для Мосгорсуда, Роскомнадзора и рекламодателей: mosgorsud-torrent[собачка]yandex.ru
 Вход
ppkBB3cker v.2 © 2008-2014 @ PPK
[ Time : 0.045s | 19 Queries | GZIP : Off ]

cron