img image001 image001 image001 image001 image001 image001 image001 image001 image001 image001 image001 image001 image001 image001 image001

Planets Sun Sun Sun
Статистика раздачи
Автор: Nickolas3434 | Размер: 44.65 ГБ | Добавлен: 15 дек 2017
Раздают: 4    Качают: 2
Скачать торрент
Скачать торрент
Описание торрента

СообщениеДобавлено: 15 дек 2017 

Информация о фильме
Название: Солт
Оригинальное название: Salt
Год выхода: 2010
Жанр: Боевик, триллер
Режиссер: Филлип Нойс
В ролях: Лив Шрайбер, Анджелина Джоли, Чиветел Эджиофор, Яра Шахиди, Гай Чарльз, Зои Листер Джонс, Виктор Слезак, Даниэль Ольбрыхский, Кэссиди Хинкль, Джеймс Шрэм
О фильме:
Эвелин Солт — сотрудница ЦРУ. Ей чудом удаётся избежать тюрьмы: собственное агентство выдвигает против неё необоснованные обвинения в том, что она работает на русскую разведку. Теперь Солт необходимо восстановить своё доброе имя.

Страна: США
Студия: Columbia Pictures
Продолжительность: 01:39:59
Перевод(ы):
#1: Дублированный | Лицензия
#2: Авторский | Гаврилов
Файл
Качество: BDRemux 2160p
Видео: MPEG-H HEVC HDR Video, 3840x2160, 56.3 Mbit/s, 23.976 fps
Звук:
Аудио #01: 48 kHz, AC3, 5.1, 640 Kbps | Дублированный | RUS |
Аудио #02: 48 kHz, AC3, 5.1, 640 Kbps | Авторский | RUS |
Аудио #03: 48 kHz, TrueHD, 5.1, 5135 Kbps | Оригинал | ENG |
Аудио #04: 48 kHz, AC3, 5.1, 640 Kbps | Оригинал | ENG |
Субтитры: Русские (forced, full), английские

General
Unique ID : 232620206089367525170287210893711650017 (0xAF0105A592DE915F99AB85EDECD62CE1)
Complete name : G:VideoSSDSalt.2010.Theatrical.Cut.BDREMUX.2169p.4K.UltraHD.HEVC.HDR.ExKinoRay.mkv
Format : Matroska
Format version : Version 4 / Version 2
File size : 44.6 GiB
Duration : 1 h 40 min
Overall bit rate mode : Variable
Overall bit rate : 63.9 Mb/s
Movie name : Salt 2010 from ExKinoRay
Encoded date : UTC 2017-12-12 21:55:12
Writing application : mkvmerge v18.0.0 ('Apricity') 64-bit
Writing library : libebml v1.3.5 + libmatroska v1.4.8
Video
ID : 1
Format : HEVC
Format/Info : High Efficiency Video Coding
Format profile : Main [email protected]@High
Codec ID : V_MPEGH/ISO/HEVC
Duration : 1 h 39 min
Bit rate : 56.3 Mb/s
Width : 3 840 pixels
Height : 2 160 pixels
Display aspect ratio : 16:9
Frame rate mode : Constant
Frame rate : 23.976 (24000/1001) FPS
Color space : YUV
Chroma subsampling : 4:2:0 (Type 2)
Bit depth : 10 bits
Bits/(Pixel*Frame) : 0.283
Stream size : 39.4 GiB (88%)
Language : English
Default : Yes
Forced : No
Color range : Limited
Color primaries : BT.2020
Transfer characteristics : PQ
Matrix coefficients : BT.2020 non-constant
Mastering display color pri : R: x=0.680000 y=0.320000, G: x=0.265000 y=0.690000, B: x=0.150000 y=0.060000, White point: x=0.312700 y=0.329000
Mastering display luminance : min: 0.0050 cd/m2, max: 4000.0000 cd/m2
Maximum Content Light Level : 1281 cd/m2
Maximum Frame-Average Light : 1087 cd/m2
Audio #1
ID : 2
Format : AC-3
Format/Info : Audio Coding 3
Format settings, Endianness : Big
Codec ID : A_AC3
Duration : 1 h 39 min
Bit rate mode : Constant
Bit rate : 640 kb/s
Channel(s) : 6 channels
Channel positions : Front: L C R, Side: L R, LFE
Sampling rate : 48.0 kHz
Frame rate : 31.250 FPS (1536 SPF)
Bit depth : 16 bits
Compression mode : Lossy
Stream size : 458 MiB (1%)
Title : Dub [License]
Language : Russian
Service kind : Complete Main
Default : Yes
Forced : No
Audio #2
ID : 3
Format : AC-3
Format/Info : Audio Coding 3
Format settings, Endianness : Big
Codec ID : A_AC3
Duration : 1 h 40 min
Bit rate mode : Constant
Bit rate : 640 kb/s
Channel(s) : 6 channels
Channel positions : Front: L C R, Side: L R, LFE
Sampling rate : 48.0 kHz
Frame rate : 31.250 FPS (1536 SPF)
Bit depth : 16 bits
Compression mode : Lossy
Stream size : 458 MiB (1%)
Title : AVO
Language : Russian
Service kind : Complete Main
Default : No
Forced : No
Audio #3
ID : 4
Format : AC-3
Format/Info : Audio Coding 3
Format settings, Endianness : Big
Codec ID : A_AC3
Duration : 1 h 39 min
Bit rate mode : Constant
Bit rate : 448 kb/s
Channel(s) : 6 channels
Channel positions : Front: L C R, Side: L R, LFE
Sampling rate : 48.0 kHz
Frame rate : 31.250 FPS (1536 SPF)
Bit depth : 16 bits
Compression mode : Lossy
Stream size : 320 MiB (1%)
Title : Dub
Language : Ukrainian
Service kind : Complete Main
Default : No
Forced : No
Audio #4
ID : 5
Format : TrueHD
Format profile : TrueHD+Atmos / TrueHD
Codec ID : A_TRUEHD
Duration : 1 h 39 min
Bit rate mode : Variable
Bit rate : 5 135 kb/s
Maximum bit rate : 8 778 kb/s
Channel(s) : Object Based / 8 channels
Channel positions : Object Based / Front: L C R, Side: L R, Back: L R, LFE
Sampling rate : / 48.0 kHz
Frame rate : 1 200.000 FPS (40 SPF)
Compression mode : Lossless
Stream size : 3.59 GiB (8%)
Title : Original
Language : English
Default : No
Forced : No
Audio #5
ID : 6
Format : AC-3
Format/Info : Audio Coding 3
Format settings, Endianness : Big
Codec ID : A_AC3
Duration : 1 h 40 min
Bit rate mode : Constant
Bit rate : 640 kb/s
Channel(s) : 6 channels
Channel positions : Front: L C R, Side: L R, LFE
Sampling rate : 48.0 kHz
Frame rate : 31.250 FPS (1536 SPF)
Bit depth : 16 bits
Compression mode : Lossy
Stream size : 458 MiB (1%)
Language : English
Service kind : Complete Main
Default : No
Forced : No
Text #1
ID : 7
Format : UTF-8
Codec ID : S_TEXT/UTF8
Codec ID/Info : UTF-8 Plain Text
Duration : 1 h 28 min
Bit rate : 0 b/s
Count of elements : 7
Stream size : 418 Bytes (0%)
Title : Forced
Language : Russian
Default : Yes
Forced : Yes
Text #2
ID : 8
Format : UTF-8
Codec ID : S_TEXT/UTF8
Codec ID/Info : UTF-8 Plain Text
Duration : 1 h 32 min
Bit rate : 76 b/s
Count of elements : 937
Stream size : 51.4 KiB (0%)
Title : Full
Language : Russian
Default : No
Forced : No
Text #3
ID : 9
Format : UTF-8
Codec ID : S_TEXT/UTF8
Codec ID/Info : UTF-8 Plain Text
Duration : 1 h 30 min
Bit rate : 47 b/s
Count of elements : 965
Stream size : 31.8 KiB (0%)
Title : Full
Language : English
Default : No
Forced : No
Menu
00:00:00.000 : en:Chapter 1
00:07:07.344 : en:Chapter 2
00:10:04.896 : en:Chapter 3
00:16:43.544 : en:Chapter 4
00:24:37.726 : en:Chapter 5
00:30:45.302 : en:Chapter 6
00:37:44.053 : en:Chapter 7
00:42:38.306 : en:Chapter 8
00:48:35.871 : en:Chapter 9
00:54:57.294 : en:Chapter 10
01:01:07.330 : en:Chapter 11
01:05:55.577 : en:Chapter 12
01:12:07.782 : en:Chapter 13
01:19:27.012 : en:Chapter 14
01:26:07.996 : en:Chapter 15
01:32:03.810 : en:Chapter 16

Релиз от: Автор релиза:
Подпишись на меня, кликни по картинке > :



   Похожие торренты   Торрент   Размер 
В этой теме нет новых непрочитанных сообщений. Солт / Salt (2010) HDRip | Театральная версия / Theatrical Cut

3 | 4

748.34 МБ

В этой теме нет новых непрочитанных сообщений. Солт / Salt (2010) HDRip от Scarabey | Театральная версия / Theatrical Cut

68 | 4

742.85 МБ

В этой теме нет новых непрочитанных сообщений. Солт [Театральная версия] / Salt [Theatrical Cut] (2010) BDRip 720p

1 | 3

7.94 ГБ

В этой теме нет новых непрочитанных сообщений. Солт / Salt (2010) DVD5 от Youtracker | D | Театральная версия / Theatrical Cut

0 | 2

4.14 ГБ

В этой теме нет новых непрочитанных сообщений. Солт / Salt (2010) BDRip 1080p | Театральная версия / Theatrical Cut

307 | 9

5.77 ГБ

В этой теме нет новых непрочитанных сообщений. Солт / Salt [Театральная версия / Theatrical Cut] (2010) BDRip от HQCLUB

35 | 7

2.18 ГБ

В этой теме нет новых непрочитанных сообщений. Солт / Salt (2010) HDRip от Scarabey | Театральная версия / Theatrical Cut

14 | 6

1.45 ГБ




Вы не можете начинать темы
Вы не можете отвечать на сообщения
Вы не можете редактировать свои сообщения
Вы не можете удалять свои сообщения
Вы не можете добавлять вложения

Перейти:  
Для Мосгорсуда, Роскомнадзора и рекламодателей: mosgorsud-torrent[собачка]yandex.ru
 Вход
ppkBB3cker v.2 © 2008-2014 @ PPK
[ Time : 0.062s | 18 Queries | GZIP : Off ]

cron