Лиза Лапира
Дэймон Херриман
img image001 image001 image001 image001 image001 image001 image001 image001 image001 image001 image001 image001 image001 image001 image001 image001
Planets Sun Sun Sun
Статистика раздачи
Автор: Nickolas3434 | Размер: 4.1 ГБ | Добавлен: 25 дек 2017
Раздают: 174    Качают: 19
Скачать торрент
Скачать торрент
Описание торрента

СообщениеДобавлено: 25 дек 2017 

Информация о фильме
Название: Обратный отсчёт: Перезапуск
Оригинальное название: Fatal Countdown: Reset
Год выхода: 2017
Жанр: фантастика, боевик
Режиссер: Чхан
В ролях: Ян Ми, Уоллес Хо, Цзинь Шицзя, Лю Чан, Чжан Ихань, Lidan Wang, Ким Хи-вон, Guangxu Luo, Youjin Chen, Lin Xu
О фильме:
История вращается вокруг Ся Тянь, единственной матери и ученого, чья работа жизни - это машина, которая может позволить людям вернуться в прошлое. Но когда ее сын, Доу Доу, похищен, единственный способ спасти его, это использовать машину времени, чтобы вернуться на час и пятьдесят минут назад, чтобы предотвратить похищение

Страна: Китай
Продолжительность: 01:45:00
Перевод: Любительский (одноголосый) Хихикающий доктор
Файл
Формат: Matroska
Качество: WEBRip 2160p
Видео: 3840x1608 (2.40:1), 24.000 fps, [email protected] ~5 244 kbps avg, 0.035 bit/pixe
Звук: 44.100 kHz, MPEG Layer 3, 2 ch, ~192.00 kbps avg rus
Трейлер
Небольшая реклама в титрах

Format : Matroska
Format version : Version 4 / Version 2
File size : 4.10 GiB
Duration : 1h 45mn
Overall bit rate : 5 547 Kbps
Encoded date : UTC 2017-12-24 09:30:44
Writing application : mkvmerge v15.0.0 ('Duel with the Devil') 64-bit
Writing library : libebml v1.3.5 + libmatroska v1.4.5
DURATION : 01:45:44.359000000
NUMBER_OF_FRAMES : 242870
NUMBER_OF_BYTES : 152264620
_STATISTICS_WRITING_APP : mkvmerge v15.0.0 ('Duel with the Devil') 64-bit
_STATISTICS_WRITING_DATE_UTC : 2017-12-24 09:30:44
_STATISTICS_TAGS : BPS DURATION NUMBER_OF_FRAMES NUMBER_OF_BYTES
Video
ID : 1
Format : AVC
Format/Info : Advanced Video Codec
Format profile : [email protected]
Format settings, CABAC : Yes
Format settings, ReFrames : 3 frames
Codec ID : V_MPEG4/ISO/AVC
Duration : 1h 45mn
Bit rate : 5 244 Kbps
Width : 3 840 pixels
Height : 1 608 pixels
Display aspect ratio : 2.40:1
Frame rate mode : Constant
Frame rate : 24.000 fps
Color space : YUV
Chroma subsampling : 4:2:0
Bit depth : 8 bits
Scan type : Progressive
Bits/(Pixel*Frame) : 0.035
Stream size : 3.87 GiB (95%)
Writing library : qiyi.com vtc-test
Default : Yes
Forced : No
Color primaries : BT.709
Transfer characteristics : BT.709
Matrix coefficients : BT.709
Color range : Limited
Audio
ID : 2
Format : MPEG Audio
Format version : Version 1
Format profile : Layer 3
Codec ID : A_MPEG/L3
Codec ID/Hint : MP3
Duration : 1h 45mn
Bit rate mode : Constant
Bit rate : 192 Kbps
Channel(s) : 2 channels
Sampling rate : 44.1 KHz
Compression mode : Lossy
Stream size : 145 MiB (3%)
Default : Yes
Forced : No



   Похожие торренты   Торрент   Размер 
В этой теме нет новых непрочитанных сообщений. Обратный отсчёт: Перезапуск / Reset / Zhi ming dao shu (2017) WEBRip-AVC от k.e.n | L, L1

30 | 0

2.18 ГБ

В этой теме нет новых непрочитанных сообщений. Перезагрузка: обратный отсчёт / Reset (2017) WEBRip 1080p

649 | 45

1.59 ГБ

В этой теме нет новых непрочитанных сообщений. Время и Стекло - Обратный отсчет (The Best) (2017) MP3

173 | 23

120.93 МБ

В этой теме нет новых непрочитанных сообщений. Синтетика - Обратный отсчёт (2016) MP3

10 | 3

75.1 МБ

В этой теме нет новых непрочитанных сообщений. Атом-76 - Обратный Отсчет (2014) MP3

321 | 2

141.34 МБ

В этой теме нет новых непрочитанных сообщений. Россия, революция 1917: Обратный отсчёт / Russia 1917: Countdown to Revolution (2017) HDTVRip 1080p | L1

20 | 5

1.55 ГБ

В этой теме нет новых непрочитанных сообщений. 6:42 / Обратный отсчёт / Countdown (2016) BDRip | L

2096 | 115

1.45 ГБ




Вы не можете начинать темы
Вы не можете отвечать на сообщения
Вы не можете редактировать свои сообщения
Вы не можете удалять свои сообщения
Вы не можете добавлять вложения

Перейти:  
Для Мосгорсуда, Роскомнадзора и рекламодателей: mosgorsud-torrent[собачка]yandex.ru
 Вход
ppkBB3cker v.2 © 2008-2014 @ PPK
[ Time : 0.062s | 19 Queries | GZIP : Off ]

cron