Chef Roble and Co
Courtney Loves Dallas
img image001 image001 image001 image001 image001 image001 image001 image001 image001 image001 image001 image001 image001 image001 image001 image001
Planets Sun Sun Sun
Статистика раздачи
Автор: Nickolas3434 | Размер: 11.5 ГБ | Добавлен: 12 янв 2018
Раздают: 493    Качают: 77
Скачать торрент
Скачать торрент
Описание торрента

СообщениеДобавлено: 12 янв 2018 

Информация о фильме
Название: Снеговик
Оригинальное название: The Snowman
Год выхода: 2017
Жанр: Ужасы, триллер, драма, криминал, детектив
Режиссер: Томас Альфредсон
В ролях: Майкл Фассбендер, Ребекка Фергюсон (II), Шарлотта Генсбур, Йонас Карлссон, Ронан Вайберт, Дж.К. Симмонс, Вэл Килмер, Давид Денсик, Тоби Джонс
О фильме:
В течение многих лет в день, когда выпадает первый снег, бесследно исчезают замужние женщины. Сложить все части загадочного пазла под силу только знаменитому детективу. Он потерял покой и сон, ведь время следующего снегопада неумолимо приближается.

Страна: Великобритания, США, Швеция
Студия: Universal Pictures, Perfect World Pictures, Another Park Film
Продолжительность: 01:59:15
Перевод: Дублированный | iTunes
Файл
Качество: BDRip 1080p
Видео: MPEG-4 AVC, 1920x1036, 11.9 Mbit/s, 23.976 fps
Звук:
Аудио #01: 48 kHz, AC3, 5.1, 384 Kbps | Дублированный | iTunes | RUS |
Аудио #02: 48 kHz, DTS, 5.1, 1510 Kbps | Оригинал | ENG |
Субтитры: Русские (forced, full), английские

General
Unique ID : 30843031866139698487939938551676399944 (0x173426E09A59FCF243C202A165D9F148)
Complete name : G:VideoSSDThe.Snowman.2017.BDRip.1080p.ExKinoRay.mkv
Format : Matroska
Format version : Version 4 / Version 2
File size : 11.5 GiB
Duration : 1 h 59 min
Overall bit rate : 13.8 Mb/s
Movie name : The Snowman 2017 from ExKinoRay
Encoded date : UTC 2018-01-07 07:34:51
Writing application : mkvmerge v19.0.0 ('Brave Captain') 64-bit
Writing library : libebml v1.3.5 + libmatroska v1.4.8
Video
ID : 1
Format : AVC
Format/Info : Advanced Video Codec
Format profile : [email protected]
Format settings : CABAC / 4 Ref Frames
Format settings, CABAC : Yes
Format settings, ReFrames : 4 frames
Codec ID : V_MPEG4/ISO/AVC
Duration : 1 h 59 min
Bit rate : 11.9 Mb/s
Width : 1 920 pixels
Height : 1 036 pixels
Display aspect ratio : 1.85:1
Frame rate mode : Constant
Frame rate : 23.976 (24000/1001) FPS
Color space : YUV
Chroma subsampling : 4:2:0
Bit depth : 8 bits
Scan type : Progressive
Bits/(Pixel*Frame) : 0.250
Stream size : 9.92 GiB (86%)
Writing library : x264 core 149 r2771+45 509cceb 7mod [[email protected] X86_64]
Encoding settings : cabac=1 / ref=4 / deblock=1:-3:-3 / analyse=0x3:0x113 / me=umh / subme=10 / psy=1 / fade_compensate=0.00 / psy_rd=0.90:0.10 / mixed_ref=1 / me_range=48 / chroma_me=1 / trellis=2 / 8x8dct=1 / cqm=0 / deadzone=21,11 / fast_pskip=0 / chroma_qp_offset=-2 / threads=12 / lookahead_threads=2 / sliced_threads=0 / nr=0 / decimate=1 / interlaced=0 / bluray_compat=0 / constrained_intra=0 / fgo=0 / bframes=8 / b_pyramid=2 / b_adapt=2 / b_bias=0 / direct=3 / weightb=1 / open_gop=0 / weightp=2 / keyint=250 / keyint_min=23 / scenecut=40 / intra_refresh=0 / rc_lookahead=40 / rc=crf / mbtree=0 / crf=21.0000 / qcomp=0.70 / qpmin=0:0:0 / qpmax=69:69:69 / qpstep=4 / vbv_maxrate=35000 / vbv_bufsize=35000 / crf_max=0.0 / nal_hrd=none / filler=0 / ip_ratio=1.40 / pb_ratio=1.30 / aq=3:1.00 / aq-sensitivity=10.00 / aq-factor=1.00:1.00:1.00 / aq2=0 / aq3=2:[0.50:0.50]:[0.50:0.50]:[0.50:0.50]:[0.50:0.50] / aq3-sensitivity=10.00 / aq3-factor=[1.00:1.00]:[1.00:1.00]:[1.00:1.00] / aq3-boundary=192:64:24
Language : English
Default : Yes
Forced : No
Color range : Limited
Matrix coefficients : BT.709
Audio #1
ID : 2
Format : AC-3
Format/Info : Audio Coding 3
Codec ID : A_AC3
Duration : 1 h 59 min
Bit rate mode : Constant
Bit rate : 384 kb/s
Channel(s) : 6 channels
Channel positions : Front: L C R, Side: L R, LFE
Sampling rate : 48.0 kHz
Frame rate : 31.250 FPS (1536 SPF)
Bit depth : 16 bits
Compression mode : Lossy
Stream size : 327 MiB (3%)
Title : iTunes
Language : Russian
Service kind : Complete Main
Default : Yes
Forced : No
Audio #2
ID : 3
Format : DTS
Format/Info : Digital Theater Systems
Codec ID : A_DTS
Duration : 1 h 59 min
Bit rate mode : Constant
Bit rate : 1 509 kb/s
Channel(s) : 6 channels
Channel positions : Front: L C R, Side: L R, LFE
Sampling rate : 48.0 kHz
Frame rate : 93.750 FPS (512 SPF)
Bit depth : 24 bits
Compression mode : Lossy
Stream size : 1.26 GiB (11%)
Title : Original
Language : English
Default : No
Forced : No
Text #1
ID : 4
Format : UTF-8
Codec ID : S_TEXT/UTF8
Codec ID/Info : UTF-8 Plain Text
Duration : 1 h 37 min
Bit rate : 1 b/s
Count of elements : 34
Stream size : 1.42 KiB (0%)
Title : Forced
Language : Russian
Default : Yes
Forced : No
Text #2
ID : 5
Format : UTF-8
Codec ID : S_TEXT/UTF8
Codec ID/Info : UTF-8 Plain Text
Duration : 1 h 53 min
Bit rate : 59 b/s
Count of elements : 1027
Stream size : 49.5 KiB (0%)
Title : Full
Language : Russian
Default : No
Forced : No
Text #3
ID : 6
Format : UTF-8
Codec ID : S_TEXT/UTF8
Codec ID/Info : UTF-8 Plain Text
Duration : 1 h 53 min
Bit rate : 37 b/s
Count of elements : 1054
Stream size : 31.0 KiB (0%)
Title : Full
Language : English
Default : No
Forced : No
Text #4
ID : 7
Format : UTF-8
Codec ID : S_TEXT/UTF8
Codec ID/Info : UTF-8 Plain Text
Duration : 1 h 53 min
Bit rate : 42 b/s
Count of elements : 1163
Stream size : 35.4 KiB (0%)
Title : SDH
Language : English
Default : No
Forced : No
Menu
00:00:00.000 : en:00:00:00.000
00:06:23.008 : en:00:06:23.008
00:13:43.072 : en:00:13:43.072
00:20:05.663 : en:00:20:05.663
00:24:21.377 : en:00:24:21.377
00:29:25.263 : en:00:29:25.263
00:33:09.321 : en:00:33:09.321
00:42:17.285 : en:00:42:17.285
00:50:44.124 : en:00:50:44.124
00:55:33.747 : en:00:55:33.747
01:02:19.903 : en:01:02:19.903
01:08:06.457 : en:01:08:06.457
01:12:24.215 : en:01:12:24.215
01:17:31.397 : en:01:17:31.397
01:23:55.489 : en:01:23:55.489
01:29:06.883 : en:01:29:06.883
01:35:45.323 : en:01:35:45.323
01:42:39.028 : en:01:42:39.028
01:50:33.752 : en:01:50:33.752
01:54:23.982 : en:01:54:23.982

Релиз от: Автор релиза:
Подпишись на меня, кликни по картинке > :



   Похожие торренты   Торрент   Размер 
В этой теме нет новых непрочитанных сообщений. Снеговик / The Snowman (2017) BDRemux 1080p от ExKinoRay | iTunes

69 | 15

26.9 ГБ

В этой теме нет новых непрочитанных сообщений. Снеговик / The Snowman (2017) BDRip от ExKinoRay | iTunes

443 | 11

2.13 ГБ

В этой теме нет новых непрочитанных сообщений. Снеговик / The Snowman (2017) BDRip от ExKinoRay | iTunes

204 | 9

1.41 ГБ

В этой теме нет новых непрочитанных сообщений. Снеговик / The Snowman (2017) BDRip 720p от ExKinoRay | iTunes

426 | 58

6.15 ГБ

В этой теме нет новых непрочитанных сообщений. Снеговик / The Snowman (2017) BDRip 1080p | iTunes

166 | 8

9.07 ГБ

В этой теме нет новых непрочитанных сообщений. Снеговик / The Snowman (2017) WEB-DL 1080p | iTunes

286 | 15

4.81 ГБ

В этой теме нет новых непрочитанных сообщений. Снеговик / The Snowman (2017) BDRip 720p | iTunes

0 | 0

5.79 ГБ




Вы не можете начинать темы
Вы не можете отвечать на сообщения
Вы не можете редактировать свои сообщения
Вы не можете удалять свои сообщения
Вы не можете добавлять вложения

Перейти:  
Для Мосгорсуда, Роскомнадзора и рекламодателей: mosgorsud-torrent[собачка]yandex.ru
 Вход
ppkBB3cker v.2 © 2008-2014 @ PPK
[ Time : 0.041s | 18 Queries | GZIP : Off ]

cron