img image001 image001 image001 image001 image001 image001 image001 image001 image001 image001 image001 image001 image001 image001 image001

Planets Sun Sun Sun
Статистика раздачи
Автор: Nickolas3434 | Размер: 1.47 ГБ | Добавлен: 12 янв 2018
Раздают: 25    Качают: 3
Скачать торрент
Скачать торрент
Описание торрента

СообщениеДобавлено: 12 янв 2018 

Информация о фильме
Название: Белая свадьба
Оригинальное название: Noce blanche
Год выхода: 1989
Жанр: драма, мелодрама
Режиссер: Жан-Клод Бриссо
В ролях: Ванесса Паради, Бруно Кремер, Людмила Микаэль, Франсуа Негре, Жан Дасте, Вероник Сильвер, Филипп Тюэн, Пьер Габастон, Арно Гужон, Агнес Лемерсье
О фильме:
Матильда — трудный подросток с неустойчивой психикой, которая делает шатким и весь мир вокруг. Задача Франсуа — ее умудренного опытом и летами педагога по философии — проста и очевидна: вернуть девушку в цивилизованное общество, к устоявшимся нормам, ввести ее в круг хрестоматийных ценностей. Он думал, что ступает по податливому песку, в то время как сделал шаг прямо на гребень волны. Вспыхнувшая между ними страсть таила огромную разрушительную силу. И когда Франсуа решил отступить, спрятаться за семьей и обычной жизнью, Матильда преградила ему дорогу...
Сезар, 1990 год
Победитель (1):
Самая многообещающая актриса (Ванесса Паради)
Номинации (2):
Лучшая актриса второго плана (Людмила Микаэль)
Лучший постер
6/10
Психологическая драма
В своём шестом по счёту фильме 48-летний режиссёр Жан-Клод Бриссо обратился к знакомой школьной среде, как и в предыдущей ленте «Шум и ярость», которая принесла ему известность. Ведь Бриссо начинал как учитель литературы и хорошо знал жизнь провинции. Вновь в его картине снялся актёр Бруно Кремер, который сыграл уже преодолевшего 50-летний рубеж учителя философии из Сен-Этьена. Поначалу этот герой по имени Франсуа Эно испытывает естественное сочувствие к нервной и одинокой семнадцатилетней Матильде (в Париже остался её замкнувшийся в себе отец-психиатр, мать одержима комплексом самоубийцы и часто попадает в больницу, братья с детства увлеклись наркотиками, а сама девочка с одиннадцати лет занималась проституцией). Откликаясь на несдерживаемые проявления эмоций своей воспитанницы, Эно меняет роль Пигмалиона на поведение отца-любовника, который, впрочем, не в состоянии защитить дочь-возлюбленную и оказаться достойным её инстинктивного желания любви.
Кстати, в фильме много говорится о бессознательном в понимании знаменитых психологов — и сама лента, к сожалению, оставляет непрояснённое, неоформленное впечатление. Свежесть и непосредственность игры дебютантки в кино, популярной певицы Ванессы Паради (ей ещё не было семнадцати лет во время съёмок), тактичная манера опытного актёра Бруно Кремера, внимание режиссёра к деталям провинциального быта — всё это постепенно теряет свою художественную привлекательность. С грустью вспоминается нежная и трагическая испанская картина «Гнездо», в которой история абсолютно неравной по возрасту любви отнюдь не сводилась лишь к частному случаю из жизни.
1994


Страна: Франция
Студия: La Sept Cinéma, La Sorcière Rouge, Les Films du Losange
Продолжительность: 01:28:14
Перевод: Профессиональный (двухголосый закадровый)


Файл
Качество видео: HDTVRip Исходник
Формат видео: AVI
Кодек: XviD
Видео: 704x512 (1.38:1), 25 fps, XviD build 50 ~1979 kbps avg, 0.22 bit/pixel
Аудио: 48 kHz, AC3 Dolby Digital, 2/0 (L,R) ch, ~192 kbps Rus
Аудио 2: 48 kHz, AC3 Dolby Digital, 2/0 (L,R) ch, ~192 kbps Fra
Субтитры: русские, английские
Сэмпл: http://yadi.sk/i/BOfbS8cF3REz9D
Код:
Общее
Полное имя                               : D:Noce blanche (1989) HDTVRip (Rus, Fra).avi
Формат                                   : AVI
Формат/Информация                        : Audio Video Interleave
Размер файла                             : 1,47 Гбайт
Продолжительность                        : 1 ч. 28 м.
Общий поток                              : 2379 Кбит/сек
Название фильма                          : Noce blanche (1989) HDTVRip (Rus, Fra)
Режиссёр                                 : Maksmet
Программа кодирования                    : VirtualDubModRus 1.5.10.2 (build 2542/release)
Формат оригинала/Имя                     : Movie
Примечание                               : 29.12.2017
Видео
Идентификатор                            : 0
Формат                                   : MPEG-4 Visual
Профиль формата                          : Advanced [email protected]
Параметр BVOP формата                    : 1
Параметр QPel формата                    : Нет
Параметр GMC формата                     : Без точки перехода
Параметр матрицы формата                 : Выборочная
Идентификатор кодека                     : XVID
Идентификатор кодека/Подсказка           : XviD
Продолжительность                        : 1 ч. 28 м.
Битрейт                                  : 1981 Кбит/сек
Ширина                                   : 704 пикселя
Высота                                   : 512 пикселей
Соотношение сторон                       : 1,375
Частота кадров                           : 25,000 кадров/сек
Цветовое пространство                    : YUV
Субдискретизация насыщенности            : 4:2:0
Битовая глубина                          : 8 бит
Тип развёртки                            : Прогрессивная
Метод сжатия                             : С потерями
Бит/(Пиксели*Кадры)                      : 0.220
Размер потока                            : 1,22 Гбайт (83%)
Библиотека кодирования                   : XviD 1.2.1 (UTC 2008-12-04)
Аудио #1
Идентификатор                            : 1
Формат                                   : AC-3
Формат/Информация                        : Audio Coding 3
Параметр Endianness формата              : Big
Идентификатор кодека                     : 2000
Продолжительность                        : 1 ч. 28 м.
Вид битрейта                             : Постоянный
Битрейт                                  : 192 Кбит/сек
Каналы                                   : 2 канала
Расположение каналов                     : Front: L R
Частота                                  : 48,0 КГц
Частота кадров                           : 31,250 кадров/сек (1536 SPF)
Битовая глубина                          : 16 бит
Метод сжатия                             : С потерями
Размер потока                            : 121 Мбайт (8%)
Выравнивание                             : Разделение по промежуткам
Продолжительность промежутка             : 40  мс. (1,00 видеокадр)
Время предзагрузки промежутка            : 500  мс.
ServiceKind/String                       : Complete Main
Аудио #2
Идентификатор                            : 2
Формат                                   : AC-3
Формат/Информация                        : Audio Coding 3
Параметр Endianness формата              : Big
Идентификатор кодека                     : 2000
Продолжительность                        : 1 ч. 28 м.
Вид битрейта                             : Постоянный
Битрейт                                  : 192 Кбит/сек
Каналы                                   : 2 канала
Расположение каналов                     : Front: L R
Частота                                  : 48,0 КГц
Частота кадров                           : 31,250 кадров/сек (1536 SPF)
Битовая глубина                          : 16 бит
Метод сжатия                             : С потерями
Размер потока                            : 121 Мбайт (8%)
Выравнивание                             : Разделение по промежуткам
Продолжительность промежутка             : 40  мс. (1,00 видеокадр)
Время предзагрузки промежутка            : 500  мс.
ServiceKind/String                       : Complete Main
 





Релиз от:



   Похожие торренты   Торрент   Размер 
В этой теме нет новых непрочитанных сообщений. Белая свадьба / Noce blanche (1989) HDTVRip | P2

17 | 1

1.46 ГБ

В этой теме нет новых непрочитанных сообщений. Белая свадьба / Noce blanche (1989) DVDRip

2 | 10

785.57 МБ

В этой теме нет новых непрочитанных сообщений. Белая свадьба / Noce blanche (1989) DVDRip от KinoZalSat

19 | 9

1.37 ГБ

В этой теме нет новых непрочитанных сообщений. Белая свадьба / Noce blanche (1989) HDTV 1080p / P2

4 | 0

3.89 ГБ

В этой теме нет новых непрочитанных сообщений. Белая свадьба / Noce blanche (1989) HDTV 1080i | P2

2 | 2

3.95 ГБ

В этой теме нет новых непрочитанных сообщений. Белая свадьба / White Wedding (2009) HDTVRip 720p от RG MixTorrent | P 2

3 | 3

1.96 ГБ

В этой теме нет новых непрочитанных сообщений. Белая планета / La planete blanche (2006) BDRip от HELLYWOOD

7 | 6

1.46 ГБ




Вы не можете начинать темы
Вы не можете отвечать на сообщения
Вы не можете редактировать свои сообщения
Вы не можете удалять свои сообщения
Вы не можете добавлять вложения

Перейти:  
Для Мосгорсуда, Роскомнадзора и рекламодателей: mosgorsud-torrent[собачка]yandex.ru
 Вход
ppkBB3cker v.2 © 2008-2014 @ PPK
[ Time : 0.060s | 19 Queries | GZIP : Off ]

cron