img image001 image001 image001 image001 image001 image001 image001 image001 image001 image001 image001 image001 image001 image001 image001

Planets Sun Sun Sun
Статистика раздачи
Автор: Nickolas3434 | Размер: 7.75 ГБ | Добавлен: 12 янв 2018
Раздают: 9    Качают: 1
Скачать торрент
Скачать торрент
Описание торрента

СообщениеДобавлено: 12 янв 2018 

Война крёстных отцов / Те, кто всё решают / Крик проститутки

Quelli che contano / Cry of the prostitute / Guns of the big shots / The big shot

«'For a lousy twenty-five bucks some people think they can do anything!'»



Страна: Италия
Жанр: драма, криминал
Год выпуска: 1974
Продолжительность: 01:36:10
Перевод: Любительский (одноголосый) | Horror Maker


Режиссер: Андреа Бьянки / Andrea Bianchi


В ролях: Генри Сильва, Барбара Буше, Фаусто Тоцци (Don Ricuzzo Cantimo), Витторио Саниполи (Don Cascemi), Марио Ланди (Don Turi Scannapieco), Мауро Риджи, Дада Галлотти (Santa Scannapieco), Патриция Гори (Carmela), Пьер Мария Росси (Paolo), Альфредо Пеа (Zino), Пьетро Торризи (Alfio Scannapieco), Армандо Боттин


Описание: Кто-то из боссов сицилийской мафии начал использовать для контрабанды наркотиков мертвых детей, в тела которых зашивался запретный груз. Когда сей факт случайно стал достоянием общественности, резонанс всколыхнул не только полицию, но и боссов семейств. На всеобщей сходке Дону Кашеми было поручено разобраться с произошедшим, поскольку беспредел творился на подведомственной ему территории. Кашеми привлек к решению проблемы надежного человека, долгое время жившего в Америке - киллера Тони Анианте.


MPAA: R - Лицам до 17 лет обязательно присутствие взрослого


Семпл





Качество: BDRip 1080p
Контейнер: MKV
Видео: AVC, 1920x816 (2.35:1), 10730 kbps, 23,976 fps, 0,286 bpp
Аудио №1: русский / AC3 / 2.0 / 48 kHz / 192 kbps / VO ( Horror Maker )
Аудио №2: итальянский / AC3 / 1 / 48 kHz / 192 kbps
Аудио №3: английский / AC3 / 1 / 48 kHz / 192 kbps
Навигация по главам: есть


Формат : Matroska
Версия формата : Version 2
Размер файла : 7,75 Гбайт
Продолжительность : 1 ч. 36 м.
Общий поток : 11,5 Мбит/сек
Название фильма : = Те, кто всё решают / Quelli che contano (1974) BDRip 1080p - KORSAR =
Дата кодирования : UTC 2018-01-06 11:35:43
Программа кодирования : mkvmerge v5.8.0 ('No Sleep / Pillow') built on Sep 2 2012 15:37:04
Библиотека кодирования : libebml v1.2.3 + libmatroska v1.3.0
Attachment : Yes
Видео
Идентификатор : 1
Формат : AVC
Формат/Информация : Advanced Video Codec
Профиль формата : [email protected]
Параметр CABAC формата : Да
Параметр ReFrames формата : 5 кадров
Идентификатор кодека : V_MPEG4/ISO/AVC
Продолжительность : 1 ч. 36 м.
Битрейт : 10,7 Мбит/сек
Ширина : 1920 пикселей
Высота : 816 пикселей
Соотношение сторон : 2,35:1
Режим частоты кадров : Постоянный
Частота кадров : 23,976 кадра/сек
Цветовое пространство : YUV
Субдискретизация насыщенности : 4:2:0
Битовая глубина : 8 бит
Тип развёртки : Прогрессивная
Бит/(Пиксели*Кадры) : 0.286
Размер потока : 7,21 Гбайт (93%)
Заголовок : Те, кто всё решают / Quelli che contano (1974) BDRip 1080p - KORSAR
Библиотека кодирования : x264 core 148 r2744kMod b97ae06
Настройки программы : cabac=1 / ref=5 / deblock=1:-3:-3 / analyse=0x3:0x113 / me=umh / subme=11 / psy=1 / fade_compensate=0.00 / psy_rd=1.00:0.00 / mixed_ref=1 / me_range=32 / chroma_me=1 / trellis=2 / 8x8dct=1 / cqm=0 / deadzone=21,11 / fast_pskip=0 / chroma_qp_offset=-2 / threads=12 / lookahead_threads=3 / sliced_threads=0 / nr=0 / decimate=1 / interlaced=0 / bluray_compat=0 / constrained_intra=0 / bframes=10 / b_pyramid=2 / b_adapt=2 / b_bias=0 / direct=3 / weightb=1 / open_gop=0 / weightp=2 / keyint=240 / keyint_min=23 / scenecut=40 / intra_refresh=0 / rc_lookahead=60 / rc=crf / mbtree=0 / crf=19.0000 / qcomp=0.60 / qpmin=0 / qpmax=39 / qpstep=4 / vbv_maxrate=50000 / vbv_bufsize=62500 / crf_max=0.0 / nal_hrd=none / filler=0 / ip_ratio=1.40 / pb_ratio=1.30 / aq=1:1.00
Язык : Italian
Default : Да
Forced : Нет
Основные цвета : BT.709
Характеристики трансфера : BT.709
Коэффициенты матрицы : BT.709
Аудио #1
Идентификатор : 2
Формат : AC-3
Формат/Информация : Audio Coding 3
Расширение режима : CM (complete main)
Параметр Endianness формата : Big
Идентификатор кодека : A_AC3
Продолжительность : 1 ч. 36 м.
Вид битрейта : Постоянный
Битрейт : 192 Кбит/сек
Каналы : 2 канала
Расположение каналов : Front: L R
Частота : 48,0 КГц
Битовая глубина : 16 бит
Метод сжатия : С потерями
Размер потока : 132 Мбайт (2%)
Заголовок : VO ( Horror Maker )
Язык : Russian
Default : Да
Forced : Нет
Аудио #2
Идентификатор : 3
Формат : AC-3
Формат/Информация : Audio Coding 3
Расширение режима : CM (complete main)
Параметр Endianness формата : Big
Идентификатор кодека : A_AC3
Продолжительность : 1 ч. 36 м.
Вид битрейта : Постоянный
Битрейт : 192 Кбит/сек
Каналы : 1 канал
Расположение каналов : Front: C
Частота : 48,0 КГц
Битовая глубина : 16 бит
Метод сжатия : С потерями
Размер потока : 132 Мбайт (2%)
Язык : Italian
Default : Нет
Forced : Нет
Аудио #3
Идентификатор : 4
Формат : AC-3
Формат/Информация : Audio Coding 3
Расширение режима : CM (complete main)
Параметр Endianness формата : Big
Идентификатор кодека : A_AC3
Продолжительность : 1 ч. 36 м.
Вид битрейта : Постоянный
Битрейт : 192 Кбит/сек
Каналы : 1 канал
Расположение каналов : Front: C
Частота : 48,0 КГц
Битовая глубина : 16 бит
Метод сжатия : С потерями
Размер потока : 132 Мбайт (2%)
Язык : English
Default : Нет
Forced : Нет
Меню
00:00:00.000 : en:Chapter 01
00:08:44.357 : en:Chapter 02
00:16:12.054 : en:Chapter 03
00:20:53.669 : en:Chapter 04
00:28:24.244 : en:Chapter 05
00:34:14.886 : en:Chapter 06
00:42:11.237 : en:Chapter 07
00:49:05.275 : en:Chapter 08
00:51:30.295 : en:Chapter 09
00:55:02.215 : en:Chapter 10
01:01:44.367 : en:Chapter 11
01:07:36.135 : en:Chapter 12
01:12:07.531 : en:Chapter 13
01:17:29.144 : en:Chapter 14
01:23:53.361 : en:Chapter 15
01:28:11.703 : en:Chapter 16
01:34:58.734 : en:Chapter 17
01:36:10.890 : en:Chapter 18








   Похожие торренты   Торрент   Размер 
В этой теме нет новых непрочитанных сообщений. Сергеев Станислав - Достойны ли мы отцов и дедов: Всегда война. Книга 1 (2011) MP3

32 | 3

660.3 МБ

В этой теме нет новых непрочитанных сообщений. Сергеев Станислав - Достойны ли мы отцов и дедов: Война сквозь время. Книга 2 (2011) MP3

26 | 3

762.88 МБ

В этой теме нет новых непрочитанных сообщений. Свой парень (1974) DVDRip-AVC от KORSAR

5 | 0

1.32 ГБ

В этой теме нет новых непрочитанных сообщений. Бесшумная война / Тихая война / Безмолвная война / The Silent War (2012) BDRip 720p | L2

3 | 5

5.15 ГБ

В этой теме нет новых непрочитанных сообщений. Война Роуз / Война супругов Роуз / The War of the Roses (1989) BDRip 1080p от FREEISLAND

4 | 2

7.95 ГБ

В этой теме нет новых непрочитанных сообщений. Мир без конца / World Without End (1956) BDRip 1080p от KORSAR | L1

8 | 4

6.54 ГБ

В этой теме нет новых непрочитанных сообщений. 28 панфиловцев (2016) BDRip 1080p от KORSAR | GER Transfer

23 | 0

7.93 ГБ




Вы не можете начинать темы
Вы не можете отвечать на сообщения
Вы не можете редактировать свои сообщения
Вы не можете удалять свои сообщения
Вы не можете добавлять вложения

Перейти:  
Для Мосгорсуда, Роскомнадзора и рекламодателей: mosgorsud-torrent[собачка]yandex.ru
 Вход
ppkBB3cker v.2 © 2008-2014 @ PPK
[ Time : 0.063s | 18 Queries | GZIP : Off ]

cron