img image001 image001 image001 image001 image001 image001 image001 image001 image001 image001 image001 image001 image001 image001 image001

Planets Sun Sun Sun
Статистика раздачи
Автор: Nickolas3434 | Размер: 3.34 ГБ | Добавлен: 12 янв 2018
Раздают: 115    Качают: 8
Скачать торрент
Скачать торрент
Описание торрента

СообщениеДобавлено: 12 янв 2018 

Информация о фильме
Название: Борг/Макинрой
Оригинальное название: Borg McEnroe
Год выхода: 2017
Жанр: драма, биография, спорт
Режиссер: Янус Мец
В ролях: Сверрир Гуднасон, Шайа ЛаБаф, Стеллан Скарсгард, Тува Новотны, Лео Борг, Маркус Моссберг, Джексон Гэнн, Скотт Артур, Йен Блэкман, Роберт Эммс
О фильме:
Две звезды, один судьбоносный матч и миллионы зрителей.
Невозмутимый Борг против вспыльчивого Макинроя. Упорство против упрямства. Борьба двух противоположных характеров, движимых, однако, одной целью — быть лучшим!

Страна: Швеция, Дания, Финляндия
Продолжительность: 01:47:35
Перевод: Профессиональный (дублированный) iTunes
Файл
Формат: MKV
Видео: 1280x536 at 24.000 fps, MPEG-4 AVC, ~4059 kbps avg
Аудио#1: Russian: 48 kHz, AC3, 3/2 (L,C,R,l,r) + LFE ch, ~384.00 kbps avg
Cубтитры: нет
Сэмпл
General
Unique ID : 174916972312026968743465623453065210726 (0x8397C891DD87730FBE95DE1D0146EB66)
Complete name : Borg.McEnroe.2017.720p.WEB-DL.Rus.mkv
Format : Matroska
Format version : Version 2
File size : 3.34 GiB
Duration : 1 h 47 min
Overall bit rate : 4 445 kb/s
Encoded date : UTC 2018-01-07 10:00:38
Writing application : mkvmerge v8.3.0 ('Over the Horizon') 64bit
Writing library : libebml v1.3.1 + libmatroska v1.4.2
Video
ID : 1
Format : AVC
Format/Info : Advanced Video Codec
Format profile : [email protected]
Format settings : 2 Ref Frames
Format settings, CABAC : No
Format settings, ReFrames : 2 frames
Codec ID : V_MPEG4/ISO/AVC
Duration : 1 h 47 min
Bit rate : 4 059 kb/s
Width : 1 280 pixels
Height : 536 pixels
Display aspect ratio : 2.40:1
Frame rate mode : Constant
Frame rate : 24.000 FPS
Color space : YUV
Chroma subsampling : 4:2:0
Bit depth : 8 bits
Scan type : Progressive
Bits/(Pixel*Frame) : 0.247
Stream size : 3.05 GiB (91%)
Language : English
Default : Yes
Forced : No
Color range : Limited
Color primaries : BT.709
Transfer characteristics : BT.709
Matrix coefficients : BT.709
Audio
ID : 2
Format : AC-3
Format/Info : Audio Coding 3
Codec ID : A_AC3
Duration : 1 h 47 min
Bit rate mode : Constant
Bit rate : 384 kb/s
Channel(s) : 6 channels
Channel positions : Front: L C R, Side: L R, LFE
Sampling rate : 48.0 kHz
Frame rate : 31.250 FPS (1536 SPF)
Bit depth : 16 bits
Compression mode : Lossy
Stream size : 295 MiB (9%)
Language : Russian
Service kind : Complete Main
Default : Yes
Forced : No
Menu
00:00:00.000 : en:Глава 1
00:08:46.375 : en:Глава 2
00:16:57.583 : en:Глава 3
00:23:56.541 : en:Глава 4
00:30:08.499 : en:Глава 5
00:37:06.207 : en:Глава 6
00:42:22.665 : en:Глава 7
00:48:13.123 : en:Глава 8
00:53:49.706 : en:Глава 9
01:00:37.789 : en:Глава 10
01:06:30.080 : en:Глава 11
01:11:20.288 : en:Глава 12
01:17:41.746 : en:Глава 13
01:24:55.579 : en:Глава 14
01:32:33.079 : en:Глава 15






   Похожие торренты   Торрент   Размер 
В этой теме нет новых непрочитанных сообщений. Борг/Макинрой / Borg McEnroe (2017) HDRip | iTunes

0 | 0

1.37 ГБ

В этой теме нет новых непрочитанных сообщений. Борг/Макинрой / Borg McEnroe (2017) WEB-DLRip-AVC от WSM | iTunes

37 | 1

1.79 ГБ

В этой теме нет новых непрочитанных сообщений. Борг/Макинрой / Borg McEnroe (2017) WEB-DLRip от Scarabey | iTunes

52 | 2

747.17 МБ

В этой теме нет новых непрочитанных сообщений. Борг/Макинрой / Borg McEnroe (2017) WEB-DLRip от MegaPeer | iTunes

80 | 2

748.35 МБ

В этой теме нет новых непрочитанных сообщений. Борг/Макинрой / Borg McEnroe (2017) WEB-DLRip от Generalfilm | КПК | iTunes

22 | 2

408.94 МБ

В этой теме нет новых непрочитанных сообщений. Борг/Макинрой / Borg McEnroe (2017) WEB-DLRip от Scarabey | iTunes

352 | 29

1.45 ГБ

В этой теме нет новых непрочитанных сообщений. Борг/Макинрой / Borg McEnroe (2017) WEB-DL 1080p от Scarabey | iTunes

242 | 11

3.72 ГБ




Вы не можете начинать темы
Вы не можете отвечать на сообщения
Вы не можете редактировать свои сообщения
Вы не можете удалять свои сообщения
Вы не можете добавлять вложения

Перейти:  
Для Мосгорсуда, Роскомнадзора и рекламодателей: mosgorsud-torrent[собачка]yandex.ru
 Вход
ppkBB3cker v.2 © 2008-2014 @ PPK
[ Time : 0.066s | 19 Queries | GZIP : Off ]

cron