img image001 image001 image001 image001 image001 image001 image001 image001 image001 image001 image001 image001 image001 image001 image001

Planets Sun Sun Sun
Статистика раздачи
Автор: Nickolas3434 | Размер: 1.41 ГБ | Добавлен: 12 янв 2018
Раздают: 145    Качают: 1
Скачать торрент
Скачать торрент
Описание торрента

СообщениеДобавлено: 12 янв 2018 

Информация о фильме
Название: Погром
Оригинальное название: Mayhem
Год выпуска: 2017
Жанр: Ужасы, боевик, комедия
Режиссер: Джо Линч
В ролях: Стивен Юн, Самара Уивинг, Стивен Брэнд, Кэролайн Чикези, Керри Фокс, Даллас Робертс, Марк Фрост, Клер Левин, Андре Эриксен, Никола Кент
О фильме:
На человечество обрушился вирус ID7. Заражённые не могут себя контролировать. На 8 часов они оказываются во власти инстинктов: ярости, похоти, страха.
Дерек упорно работал, чтобы добиться высокого положения в крупной фирме. Босс его подставил и уволил с позором. Именно в этот момент в офис попадает вирус ID7. Прекрасный шанс оторваться и восстановить справедливость.

Страна: США
Студия: Circle of Confusion, Royal Viking Entertainment
Продолжительность: 01:27:34
Перевод: Любительский (многоголосый, закадровый) | «Paradox» & Omskbird records
Субтитры: Английские
Формат: MKV
Качество: BDRip-AVC
Видео: AVC, 1024x428 (2.40:1), 23.976 fps, 1665 Kbps, 0.158 bit/pixel
Аудио 1: AC-3, 48.0 KHz, 2.0 ch, 192 Kbps, CBR (Russian)
Аудио 2: AC-3, 48.0 KHz, 5.1 ch, 448 Kbps, CBR (ENG)
Без какой-либо рекламы.
General
Unique ID : 254890157785841403553505198579082778496 (0xBFC20F09A5562B1E8196BAB6F526D780)
Complete name : D:Mayhem.2017.MVO.BDRip.AVC.mkv
Format : Matroska
Format version : Version 2
File size : 1.41 GiB
Duration : 1 h 27 min
Overall bit rate : 2 307 kb/s
Movie name : Mayhem 2017 from ExKinoRay
Encoded date : UTC 2018-01-07 15:09:11
Writing application : mkvmerge v5.6.0 ('Kenya Kane') built on May 27 2012 16:44:04
Writing library : libebml v1.2.3 + libmatroska v1.3.0
Video
ID : 1
Format : AVC
Format/Info : Advanced Video Codec
Format profile : [email protected]
Format settings, CABAC : Yes
Format settings, ReFrames : 12 frames
Codec ID : V_MPEG4/ISO/AVC
Duration : 1 h 27 min
Bit rate : 1 665 kb/s
Width : 1 024 pixels
Height : 428 pixels
Display aspect ratio : 2.40:1
Frame rate mode : Constant
Frame rate : 23.976 (23976/1000) FPS
Color space : YUV
Chroma subsampling : 4:2:0
Bit depth : 8 bits
Scan type : Progressive
Bits/(Pixel*Frame) : 0.158
Stream size : 1 015 MiB (70%)
Title : Enigma
Writing library : x264 core 152 r2851 ba24899
Encoding settings : cabac=1 / ref=12 / deblock=1:-2:-2 / analyse=0x3:0x113 / me=umh / subme=10 / psy=1 / psy_rd=1.00:0.05 / mixed_ref=1 / me_range=32 / chroma_me=1 / trellis=2 / 8x8dct=1 / cqm=0 / deadzone=21,11 / fast_pskip=0 / chroma_qp_offset=-3 / threads=12 / lookahead_threads=3 / sliced_threads=0 / nr=0 / decimate=0 / interlaced=0 / bluray_compat=0 / constrained_intra=0 / bframes=10 / b_pyramid=2 / b_adapt=2 / b_bias=0 / direct=3 / weightb=1 / open_gop=0 / weightp=2 / keyint=240 / keyint_min=23 / scenecut=40 / intra_refresh=0 / rc_lookahead=40 / rc=2pass / mbtree=0 / bitrate=1665 / ratetol=1.0 / qcomp=0.60 / qpmin=0 / qpmax=51 / qpstep=4 / cplxblur=20.0 / qblur=0.5 / vbv_maxrate=50000 / vbv_bufsize=62500 / nal_hrd=none / filler=0 / ip_ratio=1.40 / pb_ratio=1.30 / aq=1:0.80
Language : English
Default : Yes
Forced : No
Color range : Limited
Color primaries : BT.709
Transfer characteristics : BT.709
Matrix coefficients : BT.709
Audio #1
ID : 2
Format : AC-3
Format/Info : Audio Coding 3
Mode extension : CM (complete main)
Format settings, Endianness : Big
Codec ID : A_AC3
Duration : 1 h 27 min
Bit rate mode : Constant
Bit rate : 192 kb/s
Channel(s) : 2 channels
Channel positions : Front: L R
Sampling rate : 48.0 kHz
Frame rate : 31.250 FPS (1536 spf)
Compression mode : Lossy
Stream size : 120 MiB (8%)
Title : MVO
Language : Russian
Default : Yes
Forced : No
Audio #2
ID : 3
Format : AC-3
Format/Info : Audio Coding 3
Mode extension : CM (complete main)
Format settings, Endianness : Big
Codec ID : A_AC3
Duration : 1 h 27 min
Bit rate mode : Constant
Bit rate : 448 kb/s
Channel(s) : 6 channels
Channel positions : Front: L C R, Side: L R, LFE
Sampling rate : 48.0 kHz
Frame rate : 31.250 FPS (1536 spf)
Compression mode : Lossy
Stream size : 281 MiB (19%)
Language : English
Default : No
Forced : No
Text
ID : 4
Format : UTF-8
Codec ID : S_TEXT/UTF8
Codec ID/Info : UTF-8 Plain Text
Language : English
Default : No
Forced : No
Menu
00:00:00.000 : en:Chapter 01
00:10:06.188 : en:Chapter 02
00:19:52.566 : en:Chapter 03
00:34:24.896 : en:Chapter 04
00:39:10.056 : en:Chapter 05
00:56:05.278 : en:Chapter 06
01:04:28.573 : en:Chapter 07
01:13:04.838 : en:Chapter 08
01:18:09.601 : en:Chapter 09
01:23:36.428 : en:Chapter 10


Релиз от:
Автор релиза:



   Похожие торренты   Торрент   Размер 
В этой теме нет новых непрочитанных сообщений. Погром / Mayhem (2017) BDRip от MegaPeer | L

77 | 1

1.46 ГБ

В этой теме нет новых непрочитанных сообщений. Погром / Mayhem (2017) WEB-DLRip | L

0 | 0

1.37 ГБ

В этой теме нет новых непрочитанных сообщений. Погром / Mayhem (2017) WEB-DL 1080p | L

106 | 2

2.8 ГБ

В этой теме нет новых непрочитанных сообщений. Погром / Mayhem (2017) WEBRip | L2

60 | 0

1.35 ГБ

В этой теме нет новых непрочитанных сообщений. Погром / Mayhem (2017) BDRemux 1080р | L

56 | 6

15.34 ГБ

В этой теме нет новых непрочитанных сообщений. Погром / Mayhem (2017) WEBRip 720p | L2

0 | 0

2.36 ГБ

В этой теме нет новых непрочитанных сообщений. Agents of Mayhem [v 1.03] (2017) PC | Патч

5 | 1

18.12 ГБ




Вы не можете начинать темы
Вы не можете отвечать на сообщения
Вы не можете редактировать свои сообщения
Вы не можете удалять свои сообщения
Вы не можете добавлять вложения

Перейти:  
Для Мосгорсуда, Роскомнадзора и рекламодателей: mosgorsud-torrent[собачка]yandex.ru
 Вход
ppkBB3cker v.2 © 2008-2014 @ PPK
[ Time : 0.060s | 18 Queries | GZIP : Off ]

cron