img image001 image001 image001 image001 image001 image001 image001 image001 image001 image001 image001 image001 image001 image001 image001

Planets Sun Sun Sun
Статистика раздачи
Автор: Nickolas3434 | Размер: 29.7 ГБ | Добавлен: 12 янв 2018
Раздают: 6    Качают: 5
Скачать торрент
Скачать торрент
Описание торрента

СообщениеДобавлено: 12 янв 2018 

Название: Бегущий человек
Оригинальное название: The Running Man
Год выхода: 1987
Жанр: Фантастика, боевик, триллер
Режиссер: Пол Майкл Глейзер
В ролях: Арнольд Шварценеггер, Мария Кончита Алонсо, Яфет Котто, Джим Браун, Джесси Вентура, Эрланд ван Лидт, Марвин Дж. МакИнтайр, Гас Ретвиш, профессор Тору Танака, Мик Флитвуд
О фильме:
К 2017 году излюбленным развлечением для жителей Америки, превратившейся в полувоенное государство, стало садистское телешоу «Бегущий человек», участники которого — невинные жертвы — не имели ни единого шанса на выживание. Среди них оказался полицейский Бэн Ричардс (Арнольд Шварценеггер), отказавшийся расстрелять безоружную толпу голодных людей. Теперь вместе с собратьями по несчастью ему предстоит принять участие в безумной гонке со смертью, сразиться с непобедимыми монстрами — Профессором Крио, Бензопилой, Шаровой Молнией и Динамо, и отомстить бесчеловечному хозяину шоу.

Страна: США
Студия: TriStar Pictures
Продолжительность: 01:40:43
Перевод: профессиональный (многоголосый), авторский (одноголосый)
Субтитры: русские, английские
Формат: MKV
Качество: BDRemux 1080p
Видео: MPEG-4 AVC / 24978 kbps / 1920x1080 / 23.976 fps
Звук:
Аудио 1: Russian / DTS-HD Master Audio / 7.1 / 48 kHz / 5367 kbps - Многоголосый (Карусель)
Аудио 2: Russian / DTS-HD Master Audio / 7.1 / 48 kHz / 5350 kbps - Авторский (Есарев) New!!!
Аудио 3: Russian / Dolby Digital Audio / 5.1 / 48 kHz / 448 kbps - Авторский (Гаврилов)
Аудио 4: Russian / Dolby Digital Audio / 5.1 / 48 kHz / 384 kbps - Авторский (Горчаков)
Аудио 5: Ukrainian / Dolby Digital Audio / 2.0 / 48 kHz / 256 kbps - Многоголосый (ICTV)
Аудио 6: English / DTS-HD Master Audio / 7.1 / 48 kHz / 5427 kbps - Оригинал
Format : Matroska
Format version : Version 2
File size : 29.7 GiB
Duration : 1 h 40 min
Overall bit rate mode : Variable
Overall bit rate : 42.2 Mb/s
Movie name : The Running Man (1987) BDRemux 1080p
Encoded date : UTC 2018-01-08 11:10:53
Writing application : mkvmerge v4.9.1 ('Ich will') сборка от Jul 11 2011 23:53:15
Writing library : libebml v1.2.1 + libmatroska v1.1.1
Video
ID : 1
Format : AVC
Format/Info : Advanced Video Codec
Format profile : [email protected]
Format settings, CABAC : Yes
Format settings, RefFrames : 4 frames
Format settings, GOP : M=3, N=12
Codec ID : V_MPEG4/ISO/AVC
Duration : 1 h 40 min
Bit rate mode : Variable
Maximum bit rate : 37.0 Mb/s
Width : 1 920 pixels
Height : 1 080 pixels
Display aspect ratio : 16:9
Frame rate mode : Constant
Frame rate : 23.976 (24000/1001) FPS
Color space : YUV
Chroma subsampling : 4:2:0
Bit depth : 8 bits
Scan type : Progressive
Title : Бегущий человек / The Running Man
Language : English
Default : Yes
Forced : No
Color range : Limited
Color primaries : BT.709
Transfer characteristics : BT.709
Matrix coefficients : BT.709
Audio #1
ID : 2
Format : DTS
Format/Info : Digital Theater Systems
Format profile : MA / Core
Mode : 16
Format settings, Endianness : Big
Codec ID : A_DTS
Duration : 1 h 40 min
Bit rate mode : Variable / Constant
Bit rate : Unknown / 1 509 kb/s
Channel(s) : 8 channels / 6 channels
Channel positions : Front: L C R, Side: L R, Back: L R, LFE / Front: L C R, Side: L R, LFE
Sampling rate : 48.0 kHz
Frame rate : 93.750 FPS (512 SPF)
Bit depth : 24 bits
Compression mode : Lossless / Lossy
Title : Многоголосый закадровый, Карусель
Language : Russian
Default : Yes
Forced : No
Audio #2
ID : 3
Format : DTS
Format/Info : Digital Theater Systems
Format profile : MA / Core
Mode : 16
Format settings, Endianness : Big
Codec ID : A_DTS
Duration : 1 h 40 min
Bit rate mode : Variable / Constant
Bit rate : Unknown / 1 509 kb/s
Channel(s) : 8 channels / 6 channels
Channel positions : Front: L C R, Side: L R, Back: L R, LFE / Front: L C R, Side: L R, LFE
Sampling rate : 48.0 kHz
Frame rate : 93.750 FPS (512 SPF)
Bit depth : 24 bits
Compression mode : Lossless / Lossy
Title : Одноголосый закадровый, Д.Есарев
Language : Russian
Default : No
Forced : No
Audio #3
ID : 4
Format : AC-3
Format/Info : Audio Coding 3
Format settings, Endianness : Big
Codec ID : A_AC3
Duration : 1 h 40 min
Bit rate mode : Constant
Bit rate : 448 kb/s
Channel(s) : 6 channels
Channel positions : Front: L C R, Side: L R, LFE
Sampling rate : 48.0 kHz
Frame rate : 31.250 FPS (1536 SPF)
Bit depth : 16 bits
Compression mode : Lossy
Stream size : 323 MiB (1%)
Title : Одноголосый закадровый, А.Гаврилов
Language : Russian
Service kind : Complete Main
Default : No
Forced : No
Audio #4
ID : 5
Format : AC-3
Format/Info : Audio Coding 3
Format settings, Endianness : Big
Codec ID : A_AC3
Duration : 1 h 40 min
Bit rate mode : Constant
Bit rate : 384 kb/s
Channel(s) : 6 channels
Channel positions : Front: L C R, Side: L R, LFE
Sampling rate : 48.0 kHz
Frame rate : 31.250 FPS (1536 SPF)
Bit depth : 16 bits
Compression mode : Lossy
Stream size : 277 MiB (1%)
Title : Одноголосый закадровый, Горчаков
Language : Russian
Service kind : Complete Main
Default : No
Forced : No
Audio #5
ID : 6
Format : AC-3
Format/Info : Audio Coding 3
Format settings, Endianness : Big
Codec ID : A_AC3
Duration : 1 h 40 min
Bit rate mode : Constant
Bit rate : 256 kb/s
Channel(s) : 2 channels
Channel positions : Front: L R
Sampling rate : 48.0 kHz
Frame rate : 31.250 FPS (1536 SPF)
Bit depth : 16 bits
Compression mode : Lossy
Stream size : 184 MiB (1%)
Title : Профессиональный (многоголосый закадровый) «ICTV»
Language : Ukrainian
Service kind : Complete Main
Default : No
Forced : No
Audio #6
ID : 7
Format : DTS
Format/Info : Digital Theater Systems
Format profile : MA / Core
Mode : 16
Format settings, Endianness : Big
Codec ID : A_DTS
Duration : 1 h 40 min
Bit rate mode : Variable / Constant
Bit rate : Unknown / 1 509 kb/s
Channel(s) : 8 channels / 6 channels
Channel positions : Front: L C R, Side: L R, Back: L R, LFE / Front: L C R, Side: L R, LFE
Sampling rate : 48.0 kHz
Frame rate : 93.750 FPS (512 SPF)
Bit depth : 24 bits
Compression mode : Lossless / Lossy
Title : Оригинал
Language : English
Default : No
Forced : No
Text #1
ID : 8
Format : UTF-8
Codec ID : S_TEXT/UTF8
Codec ID/Info : UTF-8 Plain Text
Title : Full
Language : Russian
Default : No
Forced : No
Text #2
ID : 9
Format : UTF-8
Codec ID : S_TEXT/UTF8
Codec ID/Info : UTF-8 Plain Text
Title : Full
Language : English
Default : No
Forced : No
Text #3
ID : 10
Format : UTF-8
Codec ID : S_TEXT/UTF8
Codec ID/Info : UTF-8 Plain Text
Title : SDH
Language : English
Default : No
Forced : No
Menu
00:00:00.000 : en:00:00:00.000
00:03:21.576 : en:00:03:21.576
00:09:36.159 : en:00:09:36.159
00:14:31.537 : en:00:14:31.537
00:16:36.704 : en:00:16:36.704
00:21:57.358 : en:00:21:57.358
00:24:32.012 : en:00:24:32.012
00:27:58.385 : en:00:27:58.385
00:34:06.711 : en:00:34:06.711
00:39:19.315 : en:00:39:19.315
00:43:57.885 : en:00:43:57.885
00:45:14.962 : en:00:45:14.962
00:49:27.381 : en:00:49:27.381
00:53:38.632 : en:00:53:38.632
00:57:17.184 : en:00:57:17.184
01:02:37.170 : en:01:02:37.170
01:05:09.489 : en:01:05:09.489
01:09:18.196 : en:01:09:18.196
01:14:34.970 : en:01:14:34.970
01:18:05.431 : en:01:18:05.431
01:22:41.123 : en:01:22:41.123
01:25:50.395 : en:01:25:50.395
01:29:39.666 : en:01:29:39.666
01:34:29.038 : en:01:34:29.038




   Похожие торренты   Торрент   Размер 
В этой теме нет новых непрочитанных сообщений. Бегущий человек / The Running Man (1987) BDRip 1080p by msltel | P, P2, A

13 | 94

14.02 ГБ

В этой теме нет новых непрочитанных сообщений. Бегущий человек / The Running Man (1987) BDRip 1080p Rip by Neofilm

20 | 9

7.93 ГБ

В этой теме нет новых непрочитанных сообщений. Бегущий человек / The Running Man (1987) BDRip 1080p от HDClub

63 | 38

14.59 ГБ

В этой теме нет новых непрочитанных сообщений. Бегущий человек / The Running Man (1987) HDRip-AVC

8 | 3

2.21 ГБ

В этой теме нет новых непрочитанных сообщений. Бегущий человек / The Running Man (1987) BDRip

37 | 7

1.75 ГБ

В этой теме нет новых непрочитанных сообщений. Бегущий человек / The Running Man (1987) DVD5

1 | 3

4.37 ГБ

В этой теме нет новых непрочитанных сообщений. Бегущий человек / The Running Man (1987) BDRip | A

412 | 11

1.48 ГБ




Вы не можете начинать темы
Вы не можете отвечать на сообщения
Вы не можете редактировать свои сообщения
Вы не можете удалять свои сообщения
Вы не можете добавлять вложения

Перейти:  
Для Мосгорсуда, Роскомнадзора и рекламодателей: mosgorsud-torrent[собачка]yandex.ru
cron
 Вход
ppkBB3cker v.2 © 2008-2014 @ PPK
[ Time : 4.369s | 19 Queries | GZIP : Off ]

cron