img image001 image001 image001 image001 image001 image001 image001 image001 image001 image001 image001 image001 image001 image001 image001

Planets Sun Sun Sun
Статистика раздачи
Автор: Nickolas3434 | Размер: 1.46 ГБ | Добавлен: 12 янв 2018
Раздают: 17    Качают: 2
Скачать торрент
Скачать торрент
Описание торрента

СообщениеДобавлено: 12 янв 2018 

✦ 300 спартанцев / 300 ✦

Информация о фильме:
❖ Год выпуска: 2006
❖ Страна: США / Atmosphere Entertainment MM LLC, Hollywood Gang Productions, Legendary Pictures, Virtual Studios, Warner Bros. Pictures
❖ Жанр: фэнтези, боевик
❖ Перевод: Дублированный]
❖ Продолжительность: 01:56:32
❖ Режиссер: Зак Снайдер
❖ В ролях: Джерард Батлер, Майкл Фассбендер, Винсент Риган, Дэвид Уэнэм, Лина Хиди, Доминик Уэст, Том Уисдом, Эндрю Плевин, Эндрю Тирнан, Родриго Санторо
❖ Релиз от:
❖ Автор рипа: ProT1gR
Описание фильма:
Парламентер всемогущего царя Ксеркса оскорбил гордый народ Спарты и царя Леонида, предложив им без боя сдаться Персидской армии. Посол был брошен в пропасть, а две армии столкнулись в кровопролитной битве при Фермопилах. Это случилось в 480 году до н.э.. Триста отважных спартанцев во главе со своим царем преградили путь многотысячной армии Ксеркса (Родриго Санторо). Несмотря на численный перевес персов, спартанские воины держали оборону, проявив нечеловеческое мужество и отвагу.

Технические данные файла:
❖ Качество: HDRip-AVC (Исх. Hybrid 1080p [Open Matte] -BLUEBIRD)
❖ Формат: MKV
❖ Видео: 1024x576 (16:9), 23.976 fps, MPEG-4 AVC ~1 406 kbps (0.099 bit/pixel)
❖ Аудио: AC3, 48.0 KHz, 6 ch, 384 kbps
General
Unique ID : 218594960833424028184693407631060284792 (0xA473DBAAE07CC7D68EAD5C5B4744B578)
Complete name : X:x264300.(2006).HDRip-AVC.Open.Matte.[Kaztorrents].mkv
Format : Matroska
Format version : Version 2
File size : 1.46 GiB
Duration : 1 h 56 min
Overall bit rate : 1 790 kb/s
Encoded date : UTC 2018-01-08 08:11:42
Writing application : mkvmerge v7.8.0 ('River Man') 32bit built on Apr 3 2015 12:11:22
Writing library : libebml v1.3.1 + libmatroska v1.4.2
Video
ID : 1
Format : AVC
Format/Info : Advanced Video Codec
Format profile : [email protected]
Format settings, CABAC : Yes
Format settings, ReFrames : 12 frames
Codec ID : V_MPEG4/ISO/AVC
Duration : 1 h 56 min
Bit rate : 1 406 kb/s
Width : 1 024 pixels
Height : 576 pixels
Display aspect ratio : 16:9
Frame rate mode : Constant
Frame rate : 23.976 (24000/1001) FPS
Color space : YUV
Chroma subsampling : 4:2:0
Bit depth : 8 bits
Scan type : Progressive
Bits/(Pixel*Frame) : 0.099
Stream size : 1.12 GiB (77%)
Writing library : x264 core 146 r2538 121396c
Encoding settings : cabac=1 / ref=12 / deblock=1:-3:-3 / analyse=0x3:0x113 / me=umh / subme=11 / psy=1 / psy_rd=1.00:0.00 / mixed_ref=1 / me_range=48 / chroma_me=1 / trellis=2 / 8x8dct=1 / cqm=0 / deadzone=21,11 / fast_pskip=0 / chroma_qp_offset=-2 / threads=6 / lookahead_threads=1 / sliced_threads=0 / nr=0 / decimate=0 / interlaced=0 / bluray_compat=0 / constrained_intra=0 / bframes=12 / b_pyramid=2 / b_adapt=2 / b_bias=0 / direct=3 / weightb=1 / open_gop=0 / weightp=2 / keyint=240 / keyint_min=23 / scenecut=40 / intra_refresh=0 / rc_lookahead=40 / rc=2pass / mbtree=0 / bitrate=1406 / ratetol=1.0 / qcomp=0.60 / qpmin=0 / qpmax=69 / qpstep=4 / cplxblur=20.0 / qblur=0.5 / vbv_maxrate=50000 / vbv_bufsize=62500 / nal_hrd=none / filler=0 / ip_ratio=1.40 / pb_ratio=1.30 / aq=1:1.10
Default : Yes
Forced : No
Audio
ID : 2
Format : AC-3
Format/Info : Audio Coding 3
Mode extension : CM (complete main)
Format settings, Endianness : Big
Codec ID : A_AC3
Duration : 1 h 56 min
Bit rate mode : Constant
Bit rate : 384 kb/s
Channel(s) : 6 channels
Channel positions : Front: L C R, Side: L R, LFE
Sampling rate : 48.0 kHz
Frame rate : 31.250 FPS (1536 spf)
Bit depth : 16 bits
Compression mode : Lossy
Stream size : 320 MiB (21%)
Default : Yes
Forced : No





   Похожие торренты   Торрент   Размер 
В этой теме нет новых непрочитанных сообщений. 300 спартанцев / 300 (2006) HybridRip-AVC | D | Open Matte

20 | 3

4.15 ГБ

В этой теме нет новых непрочитанных сообщений. Залечь на дно в Брюгге / In Bruges (2008) HDRip-AVC от Kaztorrents | D | Open Matte

50 | 4

1.46 ГБ

В этой теме нет новых непрочитанных сообщений. Пятый элемент / The Fifth Element (1997) WEB-DLRip от Kaztorrents | КПК | Open Matte | D

5 | 0

479.31 МБ

В этой теме нет новых непрочитанных сообщений. Хранители / Watchmen (2009) WEB-DLRip-AVC от Kaztorrents | Режиссерская версия | Open Matte | D

0 | 0

2.3 ГБ

В этой теме нет новых непрочитанных сообщений. Ангелы и Демоны / Angels & Demons (2009) WEB-DLRip-AVC от Kaztorrents | D | Open Matte

17 | 2

2.16 ГБ

В этой теме нет новых непрочитанных сообщений. На гребне волны / Point Break (2015) WEB-DLRip от Kaztorrents | D | Open Matte

0 | 0

1.88 ГБ

В этой теме нет новых непрочитанных сообщений. Другой мир 2: Эволюция / Underworld: Evolution (2006) HDRip от Scarabey | Open Matte | D

23 | 0

747.19 МБ




Вы не можете начинать темы
Вы не можете отвечать на сообщения
Вы не можете редактировать свои сообщения
Вы не можете удалять свои сообщения
Вы не можете добавлять вложения

Перейти:  
Для Мосгорсуда, Роскомнадзора и рекламодателей: mosgorsud-torrent[собачка]yandex.ru
 Вход
ppkBB3cker v.2 © 2008-2014 @ PPK
[ Time : 0.065s | 19 Queries | GZIP : Off ]

cron