img image001 image001 image001 image001 image001 image001 image001 image001 image001 image001 image001 image001 image001 image001 image001

Planets Sun Sun Sun
Статистика раздачи
Автор: Nickolas3434 | Размер: 11.35 ГБ | Добавлен: 12 янв 2018
Раздают: 0    Качают: 0
Скачать торрент
Скачать торрент
Описание торрента

СообщениеДобавлено: 12 янв 2018 

Производство: США / Paramount Pictures
Жанр: Мелодрама, Комедия, Криминал
Режиссер: Майкл Кёртиц
Актеры: Хамфри Богарт, Альдо Рэй, Питер Устинов, Джоан Беннетт, Бэзил Рэтбоун, Лео Г. Кэррол, Джон Баэр, Глория Тэлботт, Лиа Пенман, Джон Смит
Описание:
Легкая, развлекательная комедия. Трое заключенных с Острова Дьявола изображают Санта-Клауса в семье, которую они пришли ограбить.
Вся троица отсиживала пожизненные сроки, и терять им нечего: Джозеф за фальшивомонетчество, а двое других — за убийство. Семейство же они застают переживающим трудности, которые никак не подходят к Рождеству.

Релиз от: NNM-CLUB
Продолжительность: 01:45:54
Перевод: Профессиональный, многоголосый закадровый
Язык субтитров: Английский
Вид субтитров: Вшитые отключаемые
Качество видео: WEBRip 1080p [Were.No.Angels.1955.1080p.WEBRip.DDP2.0.x264-SbR]
Видео: AVC/H.264, 1920x1080, ~14,7 Mbps
Аудио: 1 AC3, 2 ch, 192 kbps - Русский, многоголосый (ТК "Домашний")
Аудио: 2 AC3, 2 ch, 192 kbps - Русский, многоголосый (ТК "Paramount channel")
Аудио: 3 E-AC3, 2 ch, 224 kbps - Английский
Complete name : I:WED-DLWe're.No.Angels.1955.1080p.WEBRip.NNMClub.mkv
Format : Matroska
Format version : Version 4 / Version 2
File size : 11.4 GiB
Duration : 1 h 45 min
Overall bit rate mode : Variable
Overall bit rate : 15.3 Mb/s
Movie name : We're No Angels.1955.1080p.WEBRip.NNMClub
Encoded date : UTC 2018-01-06 22:29:13
Writing application : mkvmerge v8.3.0 ('Over the Horizon') 64bit
Writing library : libebml v1.3.1 + libmatroska v1.4.2
Video
ID : 1
Format : AVC
Format/Info : Advanced Video Codec
Format profile : [email protected]
Format settings : CABAC / 4 Ref Frames
Format settings, CABAC : Yes
Format settings, ReFrames : 4 frames
Codec ID : V_MPEG4/ISO/AVC
Duration : 1 h 45 min
Bit rate mode : Variable
Bit rate : 14.7 Mb/s
Maximum bit rate : 15.0 Mb/s
Width : 1 920 pixels
Height : 1 080 pixels
Display aspect ratio : 16:9
Frame rate mode : Constant
Frame rate : 23.976 (24000/1001) FPS
Color space : YUV
Chroma subsampling : 4:2:0
Bit depth : 8 bits
Scan type : Progressive
Bits/(Pixel*Frame) : 0.296
Stream size : 10.9 GiB (96%)
Title : We're No Angels.1955.1080p.WEBRip
Language : English
Default : Yes
Forced : No
Color range : Limited
Color primaries : BT.709
Transfer characteristics : BT.709
Matrix coefficients : BT.709
Audio #1
ID : 2
Format : AC-3
Format/Info : Audio Coding 3
Codec ID : A_AC3
Duration : 1 h 45 min
Bit rate mode : Constant
Bit rate : 192 kb/s
Channel(s) : 2 channels
Channel positions : Front: L R
Sampling rate : 48.0 kHz
Frame rate : 31.250 FPS (1536 SPF)
Bit depth : 16 bits
Compression mode : Lossy
Stream size : 145 MiB (1%)
Title : AC3 2.0 @ 192 kbps - MVO, Домашний
Language : Russian
Service kind : Complete Main
Default : Yes
Forced : No
Audio #2
ID : 3
Format : AC-3
Format/Info : Audio Coding 3
Codec ID : A_AC3
Duration : 1 h 45 min
Bit rate mode : Constant
Bit rate : 192 kb/s
Channel(s) : 2 channels
Channel positions : Front: L R
Sampling rate : 48.0 kHz
Frame rate : 31.250 FPS (1536 SPF)
Bit depth : 16 bits
Compression mode : Lossy
Stream size : 145 MiB (1%)
Title : AC3 2.0 @ 192 kbps - MVO, Paramount channel
Language : Russian
Service kind : Complete Main
Default : No
Forced : No
Audio #3
ID : 4
Format : E-AC-3
Format/Info : Enhanced Audio Coding 3
Codec ID : A_EAC3
Duration : 1 h 45 min
Bit rate mode : Constant
Bit rate : 224 kb/s
Channel(s) : 2 channels
Channel positions : Front: L R
Sampling rate : 48.0 kHz
Frame rate : 187.500 FPS (256 SPF)
Compression mode : Lossy
Stream size : 170 MiB (1%)
Title : E-AC3 2.0 @ 224 kbps -Original
Language : English
Service kind : Complete Main
Default : No
Forced : No
Text #1
ID : 5
Format : UTF-8
Codec ID : S_TEXT/UTF8
Codec ID/Info : UTF-8 Plain Text
Duration : 1 h 42 min
Bit rate : 82 b/s
Count of elements : 1493
Stream size : 61.4 KiB (0%)
Language : English
Default : No
Forced : No
Text #2
ID : 6
Format : UTF-8
Codec ID : S_TEXT/UTF8
Codec ID/Info : UTF-8 Plain Text
Duration : 1 h 43 min
Bit rate : 82 b/s
Count of elements : 2187
Stream size : 62.9 KiB (0%)
Title : SDH
Language : English
Default : No
Forced : No
Menu
00:00:00.000 : en:01. A Crook and Two Murderers
00:10:28.651 : en:02. Honest Day's Work
00:17:15.224 : en:03. Funny Kind of Letter
00:25:43.398 : en:04. Joseph Makes a Sale
00:34:48.943 : en:05. The Turkey Followed Me
00:41:53.992 : en:06. Three Angels From the Roof
00:49:57.684 : en:07. Quite a Welcome
00:58:11.177 : en:08. I'm An Honest Man
01:03:25.491 : en:09. Paul & Isabelle - Chaperoned
01:10:47.141 : en:10. Fair Trial
01:18:20.218 : en:11. Waking Cousin Andre
01:28:23.196 : en:12. My Uncle Is Dead
01:34:01.700 : en:13. Well Done, Adolphe!
01:39:42.833 : en:14. Made to Order



   Похожие торренты   Торрент   Размер 
В этой теме нет новых непрочитанных сообщений. Мы не ангелы / We're No Angels (1955) DVDRip-AVC | P

2 | 0

1.45 ГБ

В этой теме нет новых непрочитанных сообщений. Мы не ангелы / We're No Angels (1955) WEB-DLRip от Koenig

6 | 5

1.45 ГБ

В этой теме нет новых непрочитанных сообщений. Ангелы 3 / Tian shi xing dong III mo nu mo ri / Angels 3, Return of Iron Angels (1989) DVD-5 | A

2 | 1

3.81 ГБ

В этой теме нет новых непрочитанных сообщений. Ангелы Чарли / Charlie's Angels (2000) BDRemux 1080p | D, P, A

1 | 1

24.03 ГБ

В этой теме нет новых непрочитанных сообщений. Ангелы Чарли / Charlie's Angels (2000) BDRip 1080p

110 | 11

9.86 ГБ

В этой теме нет новых непрочитанных сообщений. Ангелы Чарли / Charlie's Angels (2000) WEB-DL 1080p | D, P, A | Open Matte

6 | 3

9.9 ГБ

В этой теме нет новых непрочитанных сообщений. Ангелы и Демоны / Angels & Demons (2009) BDRip 1080p | Extended Cut

51 | 15

12.45 ГБ




Вы не можете начинать темы
Вы не можете отвечать на сообщения
Вы не можете редактировать свои сообщения
Вы не можете удалять свои сообщения
Вы не можете добавлять вложения

Перейти:  
Для Мосгорсуда, Роскомнадзора и рекламодателей: mosgorsud-torrent[собачка]yandex.ru
 Вход
ppkBB3cker v.2 © 2008-2014 @ PPK
[ Time : 0.060s | 19 Queries | GZIP : Off ]

cron