img image001 image001 image001 image001 image001 image001 image001 image001 image001 image001 image001 image001 image001 image001 image001

Planets Sun Sun Sun
Статистика раздачи
Автор: Nickolas3434 | Размер: 1.74 ГБ | Добавлен: 12 янв 2018
Раздают: 12    Качают: 1
Скачать торрент
Скачать торрент
Описание торрента

СообщениеДобавлено: 12 янв 2018 

Год выпуска: 2014
Оригинальное название: As Above, So Below
Жанр: ужасы, триллер, детектив
Страна: США
Возраст: 16+
Режиссер: Джон Эрик Даудл
В ролях: Пердита Викс, Бен Фельдман, Эдвин Ходж, Франсуа Сивиль, Мэрион Ламберт, Али Мархьяр, Косме Кастро, Хамид Джавадан, Тео Чолби, Эми Леви
Описание: Дочь покончившего с собой археолога-исследователя Скарлетт всю сознательную жизнь посвятила поискам философского камня. Того самого мифического артефакта, который по мнению средневековых алхимиков способен превращать любой металл в золото и даровать бессмертие. Девушка бескомпромиссно идёт к намеченной цели, и ей даже удаётся определить предполагаемое местонахождение камня — катакомбы под Парижем, и найти местных проводников — команду бесстрашных любителей полазать по узким проходам самого большого склепа в мире.
Продолжительность: 01:33:01
Перевод: Дублированный [Лицензия]
Оригинальная дорожка: нет
Релиз-группа:
Качество видео: BDRip 720p Исходник: Blu-Ray Remux (1080p) Формат: mp4
Видео кодек: MPEG-4 AVC Аудио кодек: AAC
Видео: 1280x696 (1.85:1) at 23.976 fps, AVC at 2 512 kbps avg, 0.118 bit/pixel
Аудио №1 Rus: 48.0 KHz, AAC, 2 ch, 160.0 Kbps
Субтитры: нет
Навигация по главам: есть
Размер: 1.74 GiB
avs [info]: 1280x696p 1:1 @ 24000/1001 fps (cfr)
x264 [info]: using SAR=1/1
x264 [info]: using cpu capabilities: MMX2 SSE2Fast SSSE3 Cache64
x264 [info]: profile High, level 4.1
x264 [info]: frame I:591 Avg QP:15.22 size: 59965
x264 [info]: frame P:34548 Avg QP:18.52 size: 23015
x264 [info]: frame B:98680 Avg QP:19.99 size: 9341
x264 [info]: consecutive B-frames: 3.7% 5.4% 17.2% 19.9% 15.5% 31.0% 2.5% 2.7% 2.2%
x264 [info]: mb I I16..4: 11.3% 69.0% 19.7%
x264 [info]: mb P I16..4: 4.7% 16.8% 1.2% P16..4: 48.6% 11.1% 10.8% 0.1% 0.0% skip: 6.6%
x264 [info]: mb B I16..4: 0.3% 1.4% 0.1% B16..8: 40.7% 7.2% 1.1% direct: 7.7% skip:41.5% L0:47.3% L1:46.7% BI: 6.0%
x264 [info]: 8x8 transform intra:74.1% inter:82.1%
x264 [info]: coded y,uvDC,uvAC intra: 60.3% 64.1% 21.7% inter: 21.5% 25.3% 1.3%
x264 [info]: i16 v,h,dc,p: 21% 12% 6% 61%
x264 [info]: i8 v,h,dc,ddl,ddr,vr,hd,vl,hu: 16% 13% 18% 6% 11% 10% 10% 8% 8%
x264 [info]: i4 v,h,dc,ddl,ddr,vr,hd,vl,hu: 24% 15% 18% 5% 11% 9% 8% 5% 4%
x264 [info]: i8c dc,h,v,p: 58% 18% 18% 6%
x264 [info]: Weighted P-Frames: Y:7.1% UV:4.0%
x264 [info]: ref P L0: 48.8% 8.3% 14.5% 7.4% 5.6% 5.0% 4.2% 3.0% 2.9% 0.4% 0.0%
x264 [info]: ref B L0: 78.3% 8.6% 5.0% 2.6% 2.0% 1.7% 1.3% 0.5%
x264 [info]: ref B L1: 95.9% 4.1%
x264 [info]: kb/s:2511.77
encoded 133819 frames, 2.52 fps, 2511.77 kb/s

General
Complete name : ...Parizh-Gorod-myortvyx-2014_KinoGadget.mp4
Format : MPEG-4
Format profile : Base Media
Codec ID : isom (isom)
File size : 1.74 GiB
Duration : 1 h 33 min
Overall bit rate mode : Variable
Overall bit rate : 2 679 kb/s
Movie name : Париж: Город мёртвых | KinoGadget
Performer : Джон Эрик Даудл
Director : Джон Эрик Даудл
Actor : Пердита Викс / Бен Фельдман / Эдвин Ходж / Франсуа Сивиль / Мэрион Ламберт / Али Мархьяр / Косме Кастро / Хамид Джавадан / Тео Чолби / Эми Леви
Screenplay by : Джон Эрик Даудл / Дрю Даудл
Producer : Патрик Айелло / Дрю Даудл / Джон Дж. Джашни
Genre : Horror, Mystery, Thriller
ContentType : Short Film
Recorded date : 2014
Encoded date : UTC 2018-01-08 11:27:39
Tagged date : UTC 2018-01-09 09:44:11
Cover : Yes
ContentRating : mpaa|R|400|
LongDeion : Дочь покончившего с собой археолога-исследователя Скарлетт всю сознательную жизнь посвятила поискам философского камня. Того самого мифического артефакта, который по мнению средневековых алхимиков способен превращать любой металл в золото и даровать бессмертие. Девушка бескомпромиссно идёт к намеченной цели, и ей даже удаётся определить предполагаемое местонахождение камня — катакомбы под Парижем, и найти местных проводников — команду бесстрашных любителей полазать по узким проходам самого большого склепа в мире.
HDVideo : Yes
Video
ID : 1
Format : AVC
Format/Info : Advanced Video Codec
Format profile : [email protected]
Format settings : CABAC / 9 Ref Frames
Format settings, CABAC : Yes
Format settings, ReFrames : 9 frames
Codec ID : avc1
Codec ID/Info : Advanced Video Coding
Duration : 1 h 33 min
Bit rate : 2 512 kb/s
Maximum bit rate : 13.0 Mb/s
Width : 1 280 pixels
Height : 696 pixels
Display aspect ratio : 1.85:1
Frame rate mode : Constant
Frame rate : 23.976 (24000/1001) FPS
Color space : YUV
Chroma subsampling : 4:2:0
Bit depth : 8 bits
Scan type : Progressive
Bits/(Pixel*Frame) : 0.118
Stream size : 1.63 GiB (94%)
Writing library : x264 core 152 r2851 ba24899
Encoding settings : cabac=1 / ref=9 / deblock=1:-2:-1 / analyse=0x3:0x133 / me=umh / subme=7 / psy=1 / psy_rd=1.00:0.00 / mixed_ref=1 / me_range=32 / chroma_me=1 / trellis=2 / 8x8dct=1 / cqm=0 / deadzone=21,11 / fast_pskip=0 / chroma_qp_offset=-2 / threads=3 / lookahead_threads=1 / sliced_threads=0 / nr=0 / decimate=1 / interlaced=0 / bluray_compat=0 / constrained_intra=0 / bframes=8 / b_pyramid=2 / b_adapt=2 / b_bias=0 / direct=1 / weightb=1 / open_gop=0 / weightp=2 / keyint=250 / keyint_min=25 / scenecut=40 / intra_refresh=0 / rc_lookahead=60 / rc=crf / mbtree=1 / crf=19.0 / qcomp=0.60 / qpmin=0 / qpmax=69 / qpstep=4 / vbv_maxrate=62500 / vbv_bufsize=78125 / crf_max=0.0 / nal_hrd=none / filler=0 / ip_ratio=1.40 / aq=1:1.00
Encoded date : UTC 2018-01-08 10:55:34
Tagged date : UTC 2018-01-08 11:28:42
Audio
ID : 2
Format : AAC
Format/Info : Advanced Audio Codec
Format profile : LC
Codec ID : mp4a-40-2
Duration : 1 h 33 min
Bit rate mode : Variable
Bit rate : 160 kb/s
Maximum bit rate : 165 kb/s
Channel(s) : 2 channels
Channel positions : Front: L R
Sampling rate : 48.0 kHz
Frame rate : 46.875 FPS (1024 SPF)
Compression mode : Lossy
Stream size : 106 MiB (6%)
Language : Russian
Encoded date : UTC 2018-01-08 11:04:37
Tagged date : UTC 2018-01-08 11:28:42
Menu



Данный рип предназначен для просмотра на мобильных гаджетах с поддержкой формата mp4



   Похожие торренты   Торрент   Размер 
В этой теме нет новых непрочитанных сообщений. Париж: Город мёртвых / As Above, So Below (2014) HDRip | KinoGadget | iPad

1500 | 150

1.25 ГБ

В этой теме нет новых непрочитанных сообщений. Париж: Город мёртвых / As Above, So Below (2014) BDRip 720p | Лицензия

199 | 33

6.11 ГБ

В этой теме нет новых непрочитанных сообщений. Париж: Город мёртвых / As Above, So Below (2014) BDRip 720p от Leonardo and Scarabey | Лицензия

592 | 119

3.54 ГБ

В этой теме нет новых непрочитанных сообщений. Париж: Город мёртвых / As Above, So Below (2014) BDRip от HQCLUB | Лицензия

604 | 51

1.45 ГБ

В этой теме нет новых непрочитанных сообщений. Париж: Город мёртвых / As Above, So Below (2014) BDRip-AVC от MediaClub | D, A | Лицензия

317 | 66

2.63 ГБ

В этой теме нет новых непрочитанных сообщений. Париж: Город мёртвых / As Above, So Below (2014) BDRip от Twi7ter | D | Лицензия

1477 | 162

1.47 ГБ

В этой теме нет новых непрочитанных сообщений. Париж: Город мёртвых / As Above, So Below (2014) BDRip 1080p | D, A | Лицензия

227 | 65

12.01 ГБ




Вы не можете начинать темы
Вы не можете отвечать на сообщения
Вы не можете редактировать свои сообщения
Вы не можете удалять свои сообщения
Вы не можете добавлять вложения

Перейти:  
Для Мосгорсуда, Роскомнадзора и рекламодателей: mosgorsud-torrent[собачка]yandex.ru
 Вход
ppkBB3cker v.2 © 2008-2014 @ PPK
[ Time : 0.066s | 18 Queries | GZIP : Off ]

cron