img image001 image001 image001 image001 image001 image001 image001 image001 image001 image001 image001 image001 image001 image001 image001

Planets Sun Sun Sun
Статистика раздачи
Автор: Nickolas3434 | Размер: 903.74 МБ | Добавлен: 12 янв 2018
Раздают: 9    Качают: 3
Скачать торрент
Скачать торрент
Описание торрента

СообщениеДобавлено: 12 янв 2018 

Год выпуска: 2016
Оригинальное название: Incarnate
Страна: США
Жанр: ужасы, триллер
Возраст: 16+
Режиссер: Брэд Пейтон
В ролях: Кэрис ван Хаутен, Аарон Экхарт, Дэвид Мазоуз, Каталина Сандино Морено, Эмджей Энтони, Мэттью Нэйбл, Бриэнн Хилл, Каролина Выдра, Кейр О’Доннелл, Марк Стегер
Описание фильма Инкарнация (2016): Доктор Эмбер — не экзорцист. У него свои методы изгонять зло, поселившееся в людях. Но, проникнув в сознание 11-летнего мальчика, доктор понял, что это именно тот могущественный демон, с которым он ищет встречи уже многие годы.
Продолжительность: 01:26:36
Перевод: Дублированный [iTunes]
Оригинальная дорожка: нет
Релиз-группа:
Качество видео: BDRip 720p Исходник: Blu-Ray Remux (1080p) Формат: mp4
Видео кодек: MPEG-4 AVC Аудио кодек: AAC
Видео: 1280x536 (2.40:1) at 23.976 fps, AVC at 1 291 kbps avg, 0.078 bit/pixel
Аудио №1 Rus: 48.0 KHz, AAC, 2 ch, 160.0 Kbps
Субтитры: нет
Навигация по главам: несть
Размер: 904 MiB
avs [info]: 1280x536p 1:1 @ 24000/1001 fps (cfr)
x264 [info]: using SAR=1/1
x264 [info]: using cpu capabilities: MMX2 SSE2Fast SSSE3 Cache64
x264 [info]: profile High, level 4.1
x264 [info]: frame I:1085 Avg QP:14.63 size: 68476
x264 [info]: frame P:23749 Avg QP:17.99 size: 15301
x264 [info]: frame B:99769 Avg QP:19.83 size: 4021
x264 [info]: consecutive B-frames: 1.9% 1.3% 4.4% 6.6% 12.5% 59.6% 8.4% 2.7% 2.6%
x264 [info]: mb I I16..4: 14.9% 68.7% 16.4%
x264 [info]: mb P I16..4: 2.7% 6.9% 0.8% P16..4: 48.8% 11.4% 16.0% 0.2% 0.1% skip:13.3%
x264 [info]: mb B I16..4: 0.1% 0.3% 0.0% B16..8: 39.0% 3.6% 0.6% direct: 2.6% skip:53.7% L0:44.9% L1:51.3% BI: 3.8%
x264 [info]: 8x8 transform intra:67.4% inter:71.3%
x264 [info]: coded y,uvDC,uvAC intra: 58.3% 78.0% 57.7% inter: 8.9% 18.1% 3.3%
x264 [info]: i16 v,h,dc,p: 45% 15% 7% 33%
x264 [info]: i8 v,h,dc,ddl,ddr,vr,hd,vl,hu: 22% 12% 23% 5% 8% 9% 7% 8% 6%
x264 [info]: i4 v,h,dc,ddl,ddr,vr,hd,vl,hu: 31% 15% 18% 5% 8% 8% 6% 5% 3%
x264 [info]: i8c dc,h,v,p: 56% 15% 20% 10%
x264 [info]: Weighted P-Frames: Y:4.0% UV:2.5%
x264 [info]: ref P L0: 51.1% 6.9% 18.1% 7.2% 5.9% 4.5% 3.8% 2.4% 0.1% 0.0%
x264 [info]: ref B L0: 75.6% 11.5% 6.3% 2.7% 2.2% 1.3% 0.4%
x264 [info]: ref B L1: 92.7% 7.3%
x264 [info]: kb/s:1291.25
encoded 124603 frames, 4.95 fps, 1291.25 kb/s

General
Complete name : ...Inkarnaciya-2016_KinoGadget.mp4
Format : MPEG-4
Format profile : Base Media
Codec ID : isom (isom)
File size : 904 MiB
Duration : 1 h 26 min
Overall bit rate mode : Variable
Overall bit rate : 1 459 kb/s
Movie name : Инкарнация | KinoGadget
Performer : Брэд Пейтон
Director : Брэд Пейтон
Actor : Кэрис ван Хаутен / Аарон Экхарт / Дэвид Мазоуз / Каталина Сандино Морено / Эмджей Энтони / Мэттью Нэйбл / Бриэнн Хилл / Каролина Выдра / Кейр О’Доннелл / Марк Стегер
Screenplay by : Ронни Кристенсен
Producer : Джейсон Блум / Тревор Энгельсон / Майкл Ситцман
Genre : Horror, Thriller
ContentType : Short Film
Recorded date : 2016
Encoded date : UTC 2018-01-09 09:31:36
Tagged date : UTC 2018-01-09 10:12:58
Cover : Yes
ContentRating : mpaa|PG-13|300|
LongDeion : Доктор Эмбер — не экзорцист. У него свои методы изгонять зло, поселившееся в людях. Но, проникнув в сознание 11-летнего мальчика, доктор понял, что это именно тот могущественный демон, с которым он ищет встречи уже многие годы.
HDVideo : Yes
Video
ID : 1
Format : AVC
Format/Info : Advanced Video Codec
Format profile : [email protected]
Format settings : CABAC / 8 Ref Frames
Format settings, CABAC : Yes
Format settings, ReFrames : 8 frames
Codec ID : avc1
Codec ID/Info : Advanced Video Coding
Duration : 1 h 26 min
Bit rate : 1 291 kb/s
Maximum bit rate : 11.9 Mb/s
Width : 1 280 pixels
Height : 536 pixels
Display aspect ratio : 2.40:1
Frame rate mode : Constant
Frame rate : 23.976 (24000/1001) FPS
Color space : YUV
Chroma subsampling : 4:2:0
Bit depth : 8 bits
Scan type : Progressive
Bits/(Pixel*Frame) : 0.078
Stream size : 800 MiB (89%)
Writing library : x264 core 152 r2851 ba24899
Encoding settings : cabac=1 / ref=8 / deblock=1:-2:-1 / analyse=0x3:0x133 / me=umh / subme=7 / psy=1 / psy_rd=1.00:0.00 / mixed_ref=1 / me_range=32 / chroma_me=1 / trellis=2 / 8x8dct=1 / cqm=0 / deadzone=21,11 / fast_pskip=0 / chroma_qp_offset=-2 / threads=3 / lookahead_threads=1 / sliced_threads=0 / nr=0 / decimate=1 / interlaced=0 / bluray_compat=0 / constrained_intra=0 / bframes=8 / b_pyramid=2 / b_adapt=2 / b_bias=0 / direct=1 / weightb=1 / open_gop=0 / weightp=2 / keyint=250 / keyint_min=25 / scenecut=40 / intra_refresh=0 / rc_lookahead=60 / rc=crf / mbtree=1 / crf=19.0 / qcomp=0.60 / qpmin=0 / qpmax=69 / qpstep=4 / vbv_maxrate=62500 / vbv_bufsize=78125 / crf_max=0.0 / nal_hrd=none / filler=0 / ip_ratio=1.40 / aq=1:1.00
Encoded date : UTC 2018-01-09 02:52:25
Tagged date : UTC 2018-01-09 09:32:19
Audio
ID : 2
Format : AAC
Format/Info : Advanced Audio Codec
Format profile : LC
Codec ID : mp4a-40-2
Duration : 1 h 26 min
Bit rate mode : Variable
Bit rate : 160 kb/s
Maximum bit rate : 168 kb/s
Channel(s) : 2 channels
Channel positions : Front: L R
Sampling rate : 48.0 kHz
Frame rate : 46.875 FPS (1024 SPF)
Compression mode : Lossy
Stream size : 99.1 MiB (11%)
Language : Russian
Encoded date : UTC 2018-01-09 03:00:14
Tagged date : UTC 2018-01-09 09:32:19
Menu



Данный рип предназначен для просмотра на мобильных гаджетах с поддержкой формата mp4



   Похожие торренты   Торрент   Размер 
В этой теме нет новых непрочитанных сообщений. Инкарнация / Incarnate (2016) BDRip 720p от ExKinoRay | iTunes

286 | 13

3.71 ГБ

В этой теме нет новых непрочитанных сообщений. Инкарнация / Incarnate (2016) BDRip 720p от New-Team | iTunes

306 | 23

4.08 ГБ

В этой теме нет новых непрочитанных сообщений. Инкарнация / Incarnate (2016) BDRip 720p от k.e.n & MegaPeer | iTunes

134 | 8

3.07 ГБ

В этой теме нет новых непрочитанных сообщений. Инкарнация / Incarnate (2016) BDRip-AVC | iTunes

53 | 9

742.52 МБ

В этой теме нет новых непрочитанных сообщений. Инкарнация / Incarnate (2016) BDRip от ImperiaFilm | КПК | iTunes

21 | 12

294.56 МБ

В этой теме нет новых непрочитанных сообщений. Инкарнация / Incarnate (2016) BDRip от ExKinoRay | iTunes

131 | 16

1.42 ГБ

В этой теме нет новых непрочитанных сообщений. Инкарнация / Incarnate (2016) BDRip от MegaPeer | iTunes

391 | 12

1.42 ГБ




Вы не можете начинать темы
Вы не можете отвечать на сообщения
Вы не можете редактировать свои сообщения
Вы не можете удалять свои сообщения
Вы не можете добавлять вложения

Перейти:  
Для Мосгорсуда, Роскомнадзора и рекламодателей: mosgorsud-torrent[собачка]yandex.ru
 Вход
ppkBB3cker v.2 © 2008-2014 @ PPK
[ Time : 2.608s | 19 Queries | GZIP : Off ]

cron