Season 1 Episode 3 - Pledge Week
Season 1 Episode 2 - Devil's Three-Way
img image001 image001 image001 image001 image001 image001 image001 image001 image001 image001 image001 image001 image001 image001 image001 image001
Planets Sun Sun Sun
Статистика раздачи
Автор: Nickolas3434 | Размер: 2.87 ГБ | Добавлен: 12 янв 2018
Раздают: 19    Качают: 4
Скачать торрент
Скачать торрент
Описание торрента

СообщениеДобавлено: 12 янв 2018 

Информация о фильме
Название: Деньги на двоих
Оригинальное название: Two for the Money
Год выхода: 2005
Жанр: Триллер, драма, спорт
Режиссер: Д. Дж. Карузо
В ролях: Аль Пачино, Мэттью МакКонахи, Рене Руссо, Арманд Ассанте, Джереми Пивен, Джейми Кинг, Кевин Чэпмен, Ральф Гармен, Гедде Ватанабэ, Карли Поуп
О фильме:
Форвард успешной футбольной команды Брэндон, получив травму и навсегда распрощавшись со спортивной карьерой, вынужден искать иные способы заработка. Тут-то он и вспоминает знаменитого букмекера Уолтера, некогда предлагавшего Брэндону выгодные аферы, на которые звезда футбола всегда отвечал гордым отказом. Уолтер, знающий наверняка, как легко и быстро приумножить капитал, заключает с экс-футболистом авантюрный договор. Жонглируя миллионами долларов, Брэндон и Уолтер вступают в опасную игру, где проигрыш подобен смерти. К ним в руки плывут бешеные деньги, но выдержит ли Боливар двоих?

Выпущено: США, Cosmic Entertainment , Morgan Creek Productions, Universal Pictures
Продолжительность: 02:02:32
Перевод: Дублированный | Авторский одноголосый, М.Яроцкий
Субтитры: Русские, английские
Файл
Кодек: H.264
Качество: BDRip (AVC)
Видео: MPEG-4 AVC, 2005 Кбит/с, 1024x436
Звук:
Аудио #1: Русский (AC3, 6 ch, 448 Кбит/с) - Дублированный
Аудио #2: Русский (AC3, 6 ch, 448 Кбит/с) - Авторский одноголосый, М.Яроцкий
Аудио #3: Английский (AC3, 6 ch, 448 Кбит/с)
Формат : Matroska
Версия формата : Version 4 / Version 2
Размер файла : 2,87 Гбайт
Продолжительность : 2 ч. 2 м.
Общий поток : 3345 Кбит/сек
Название фильма : Dengi.na.dvoih.2005.x264.BDRip.AVC.ExKinoRay
Дата кодирования : UTC 2018-01-08 16:36:41
Программа кодирования : mkvmerge v17.0.0 ('Be Ur Friend') 64-bit
Библиотека кодирования : libebml v1.3.5 + libmatroska v1.4.8
Видео
Идентификатор : 1
Формат : AVC
Формат/Информация : Advanced Video Codec
Профиль формата : [email protected]
Параметр CABAC формата : Да
Параметр ReFrames формата : 12 кадров
Идентификатор кодека : V_MPEG4/ISO/AVC
Продолжительность : 2 ч. 2 м.
Битрейт : 2005 Кбит/сек
Ширина : 1024 пикселя
Высота : 436 пикселей
Соотношение сторон : 2,35:1
Режим частоты кадров : Постоянный
Частота кадров : 23,976 (24000/1001) кадра/сек
Цветовое пространство : YUV
Субдискретизация насыщенности : 4:2:0
Битовая глубина : 8 бит
Тип развёртки : Прогрессивная
Бит/(Пиксели*Кадры) : 0.187
Размер потока : 1,72 Гбайт (60%)
Заголовок : ExKinoRay
Библиотека кодирования : x264 core 152 r2851 ba24899
Настройки программы : cabac=1 / ref=12 / deblock=1:-2:-2 / analyse=0x3:0x133 / me=umh / subme=11 / psy=1 / psy_rd=1.00:0.00 / mixed_ref=1 / me_range=32 / chroma_me=1 / trellis=2 / 8x8dct=1 / cqm=0 / deadzone=21,11 / fast_pskip=0 / chroma_qp_offset=-3 / threads=6 / lookahead_threads=1 / sliced_threads=0 / nr=0 / decimate=0 / interlaced=0 / bluray_compat=0 / constrained_intra=0 / bframes=10 / b_pyramid=2 / b_adapt=2 / b_bias=0 / direct=3 / weightb=1 / open_gop=0 / weightp=2 / keyint=240 / keyint_min=23 / scenecut=40 / intra_refresh=0 / rc_lookahead=40 / rc=2pass / mbtree=0 / bitrate=2005 / ratetol=1.0 / qcomp=0.60 / qpmin=0 / qpmax=69 / qpstep=4 / cplxblur=20.0 / qblur=0.5 / vbv_maxrate=50000 / vbv_bufsize=62500 / nal_hrd=none / filler=0 / ip_ratio=1.40 / pb_ratio=1.30 / aq=2:1.00
Язык : English
Default : Да
Forced : Нет
Аудио #1
Идентификатор : 2
Формат : AC-3
Формат/Информация : Audio Coding 3
Расширение режима : CM (complete main)
Параметр Endianness формата : Big
Идентификатор кодека : A_AC3
Продолжительность : 2 ч. 2 м.
Вид битрейта : Постоянный
Битрейт : 448 Кбит/сек
Каналы : 6 каналов
Расположение каналов : Front: L C R, Side: L R, LFE
Частота : 48,0 КГц
Частота кадров : 31,250 кадров/сек (1536 spf)
Метод сжатия : С потерями
Размер потока : 394 Мбайт (13%)
Заголовок : Дублированный
Язык : Russian
Default : Да
Forced : Нет
Аудио #2
Идентификатор : 3
Формат : AC-3
Формат/Информация : Audio Coding 3
Расширение режима : CM (complete main)
Параметр Endianness формата : Big
Идентификатор кодека : A_AC3
Продолжительность : 2 ч. 2 м.
Вид битрейта : Постоянный
Битрейт : 448 Кбит/сек
Каналы : 6 каналов
Расположение каналов : Front: L C R, Side: L R, LFE
Частота : 48,0 КГц
Частота кадров : 31,250 кадров/сек (1536 spf)
Метод сжатия : С потерями
Размер потока : 393 Мбайт (13%)
Заголовок : Яроцкий
Язык : Russian
Default : Нет
Forced : Нет
Аудио #3
Идентификатор : 4
Формат : AC-3
Формат/Информация : Audio Coding 3
Расширение режима : CM (complete main)
Параметр Endianness формата : Big
Идентификатор кодека : A_AC3
Продолжительность : 2 ч. 2 м.
Вид битрейта : Постоянный
Битрейт : 448 Кбит/сек
Каналы : 6 каналов
Расположение каналов : Front: L C R, Side: L R, LFE
Частота : 48,0 КГц
Частота кадров : 31,250 кадров/сек (1536 spf)
Метод сжатия : С потерями
Размер потока : 393 Мбайт (13%)
Заголовок : Английский
Язык : English
Default : Нет
Forced : Нет
Текст #1
Идентификатор : 5
Формат : UTF-8
Идентификатор кодека : S_TEXT/UTF8
Идентификатор кодека/Информация : UTF-8 Plain Text
Продолжительность : 1 ч. 57 м.
Битрейт : 142 бит/сек
Count of elements : 1918
Размер потока : 122 Кбайт (0%)
Язык : Russian
Default : Нет
Forced : Нет
Текст #2
Идентификатор : 6
Формат : UTF-8
Идентификатор кодека : S_TEXT/UTF8
Идентификатор кодека/Информация : UTF-8 Plain Text
Продолжительность : 1 ч. 55 м.
Битрейт : 92 бит/сек
Count of elements : 1872
Размер потока : 78,6 Кбайт (0%)
Язык : English
Default : Нет
Forced : Нет
Меню
00:00:00.000 : en:00:00:00.000
00:01:53.738 : en:00:01:53.738
00:04:01.991 : en:00:04:01.991
00:08:11.199 : en:00:08:11.199
00:10:17.366 : en:00:10:17.366
00:14:53.767 : en:00:14:53.767
00:17:15.784 : en:00:17:15.784
00:23:28.323 : en:00:23:28.323
00:28:40.552 : en:00:28:40.552
00:32:17.352 : en:00:32:17.352
00:36:21.846 : en:00:36:21.846
00:39:52.556 : en:00:39:52.556
00:43:39.700 : en:00:43:39.700
00:47:28.720 : en:00:47:28.720
00:50:11.049 : en:00:50:11.049
00:54:03.907 : en:00:54:03.907
00:57:01.876 : en:00:57:01.876
01:01:26.307 : en:01:01:26.307
01:04:04.549 : en:01:04:04.549
01:06:40.746 : en:01:06:40.746
01:10:49.161 : en:01:10:49.161
01:14:19.913 : en:01:14:19.913
01:19:17.210 : en:01:19:17.210
01:23:30.380 : en:01:23:30.380
01:26:18.756 : en:01:26:18.756
01:30:25.628 : en:01:30:25.628
01:33:02.410 : en:01:33:02.410
01:39:32.424 : en:01:39:32.424
01:46:56.952 : en:01:46:56.952
01:49:33.733 : en:01:49:33.733
01:55:23.041 : en:01:55:23.041
01:56:50.044 : en:01:56:50.044


Релиз от:



   Похожие торренты   Торрент   Размер 
В этой теме нет новых непрочитанных сообщений. Деньги на двоих / Two for the Money (2005) BDRip-AVC от ExKinoRay | D

20 | 0

747.06 МБ

В этой теме нет новых непрочитанных сообщений. Деньги на двоих / Two for the Money (2005) BDRip от HQ-ViDEO

32 | 17

2.57 ГБ

В этой теме нет новых непрочитанных сообщений. Деньги на двоих / Two for the Money (2005) BDRip 720p | D

81 | 16

4.37 ГБ

В этой теме нет новых непрочитанных сообщений. Деньги на двоих / Two for the Money (2005) BDRip-AVC от MediaClub | D

129 | 18

3.76 ГБ

В этой теме нет новых непрочитанных сообщений. Деньги на двоих / Two for the Money (2005) BDRip 1080p от NNNB

101 | 14

7.94 ГБ

В этой теме нет новых непрочитанных сообщений. Деньги на двоих / Two for the Money (2005) HDRip от Portablius | D

126 | 20

750.27 МБ

В этой теме нет новых непрочитанных сообщений. Деньги на двоих / Two for the Money (2005) BDRemux 1080p | D

11 | 18

29.65 ГБ




Вы не можете начинать темы
Вы не можете отвечать на сообщения
Вы не можете редактировать свои сообщения
Вы не можете удалять свои сообщения
Вы не можете добавлять вложения

Перейти:  
Для Мосгорсуда, Роскомнадзора и рекламодателей: mosgorsud-torrent[собачка]yandex.ru
 Вход
ppkBB3cker v.2 © 2008-2014 @ PPK
[ Time : 0.053s | 19 Queries | GZIP : Off ]

cron