The Lost Brother 720p download
The Lost Brother full hd download
img image001 image001 image001 image001 image001 image001 image001 image001 image001 image001 image001 image001 image001 image001 image001 image001
Planets Sun Sun Sun
Статистика раздачи
Автор: Nickolas3434 | Размер: 8.33 ГБ | Добавлен: 12 янв 2018
Раздают: 8    Качают: 1
Скачать торрент
Скачать торрент
Описание торрента

СообщениеДобавлено: 12 янв 2018 

Информация о фильме
Название: Свет вокруг
Оригинальное название: Everything Is Illuminated
Год выхода: 2005
Слоган: «Leave Normal Behind»
Жанр: драма, комедия
Режиссер: Лив Шрайбер
В ролях: Евгений Гудзь, Элайджа Вуд, Джонатан Сафран Фоер, Яна Храбетова, Stephen Samudovsky, Любомир Дезера, Александр Хорошко, Джил Казимиров, Сюзанна Ходкова, Микки
Описание: Молодой американец еврейского происхождения пытается найти женщину, которая спасла его дедушку во времена Второй мировой войны в украинской деревне. С помощью местных, которые очень слабо разговаривают на английском, сделать это будет не так уж и просто…

Страна: США
Студия: Big Beach Films
Время: 01:41:13
Перевод #1: Профессиональный (двухголосый закадровый) Tycoon
Перевод #2: Профессиональный (многоголосый закадровый) SDI Media


General
Unique ID : 199688104973897072999060240202550806150 (0x963A87B406757927AB794676DF790686)
Complete name : F:Everything.is.Illuminated.2005.1080p.WEB-DL.DD5.1.x264.-whip93.mkv
Format : Matroska
Format version : Version 4 / Version 2
File size : 8.33 GiB
Duration : 1h 41mn
Overall bit rate mode : Variable
Overall bit rate : 11.8 Mbps
Movie name : Свет вокруг | Everything is Illuminated (2005) - Release by whip93
Encoded date : UTC 2017-06-16 07:35:30
Writing application : mkvmerge v6.1.0 ('Old Devil') built on Mar 4 2013 09:10:42
Writing library : libebml v1.3.0 + libmatroska v1.4.0
Video
ID : 1
Format : AVC
Format/Info : Advanced Video Codec
Format profile : [email protected]
Format settings, CABAC : Yes
Format settings, ReFrames : 4 frames
Codec ID : V_MPEG4/ISO/AVC
Duration : 1h 41mn
Bit rate mode : Variable
Bit rate : 10.3 Mbps
Maximum bit rate : 15.0 Mbps
Width : 1 920 pixels
Height : 1 080 pixels
Display aspect ratio : 16:9
Frame rate mode : Constant
Frame rate : 25.000 fps
Original frame rate : 23.976 fps
Color space : YUV
Chroma subsampling : 4:2:0
Bit depth : 8 bits
Scan type : Progressive
Bits/(Pixel*Frame) : 0.199
Stream size : 7.31 GiB (88%)
Title : Mastered by whip93
Writing library : x264 core 148 r2623 d5b2374
Encoding settings : cabac=1 / ref=4 / deblock=1:-1:-1 / analyse=0x3:0x133 / me=umh / subme=9 / psy=1 / psy_rd=1.00:0.15 / mixed_ref=1 / me_range=24 / chroma_me=1 / trellis=2 / 8x8dct=1 / cqm=0 / deadzone=21,11 / fast_pskip=1 / chroma_qp_offset=-3 / threads=34 / lookahead_threads=5 / sliced_threads=0 / nr=150 / decimate=1 / interlaced=0 / bluray_compat=0 / constrained_intra=0 / bframes=8 / b_pyramid=2 / b_adapt=2 / b_bias=0 / direct=3 / weightb=1 / open_gop=0 / weightp=2 / keyint=120 / keyint_min=61 / scenecut=0 / intra_refresh=0 / rc_lookahead=120 / rc=crf / mbtree=1 / crf=18.0 / qcomp=0.60 / qpmin=0 / qpmax=69 / qpstep=4 / vbv_maxrate=15000 / vbv_bufsize=31250 / crf_max=0.0 / nal_hrd=vbr / filler=0 / ip_ratio=1.40 / aq=3:1.00
Language : German
Default : Yes
Forced : No
Color range : Limited
Color primaries : BT.709
Transfer characteristics : BT.709
Matrix coefficients : BT.709
Audio #1
ID : 2
Format : AC-3
Format/Info : Audio Coding 3
Mode extension : CM (complete main)
Format settings, Endianness : Big
Codec ID : A_AC3
Duration : 1h 41mn
Bit rate mode : Constant
Bit rate : 448 Kbps
Channel(s) : 6 channels
Channel positions : Front: L C R, Side: L R, LFE
Sampling rate : 48.0 KHz
Compression mode : Lossy
Stream size : 324 MiB (4%)
Title : DVO (Tycoon)
Language : Russian
Default : Yes
Forced : No
Audio #2
ID : 3
Format : AC-3
Format/Info : Audio Coding 3
Mode extension : CM (complete main)
Format settings, Endianness : Big
Codec ID : A_AC3
Duration : 1h 41mn
Bit rate mode : Constant
Bit rate : 384 Kbps
Channel(s) : 6 channels
Channel positions : Front: L C R, Side: L R, LFE
Sampling rate : 48.0 KHz
Compression mode : Lossy
Stream size : 278 MiB (3%)
Title : MVO (SDI Media)
Language : Russian
Default : No
Forced : No
Audio #3
ID : 4
Format : AC-3
Format/Info : Audio Coding 3
Mode extension : CM (complete main)
Format settings, Endianness : Big
Codec ID : A_AC3
Duration : 1h 41mn
Bit rate mode : Constant
Bit rate : 384 Kbps
Channel(s) : 6 channels
Channel positions : Front: L C R, Side: L R, LFE
Sampling rate : 48.0 KHz
Compression mode : Lossy
Stream size : 278 MiB (3%)
Title : Original
Language : English
Default : No
Forced : No
Text #1
ID : 5
Format : UTF-8
Codec ID : S_TEXT/UTF8
Codec ID/Info : UTF-8 Plain Text
Title : SDI Media
Language : Russian
Default : No
Forced : No
Text #2
ID : 6
Format : UTF-8
Codec ID : S_TEXT/UTF8
Codec ID/Info : UTF-8 Plain Text
Title : Forced
Language : English
Default : No
Forced : No
Text #3
ID : 7
Format : UTF-8
Codec ID : S_TEXT/UTF8
Codec ID/Info : UTF-8 Plain Text
Title : SDI Media
Language : English
Default : No
Forced : No
Menu
00:00:00.000 : en:Chapter 1
00:03:56.031 : en:Chapter 2
00:09:25.631 : en:Chapter 3
00:13:33.351 : en:Chapter 4
00:18:05.791 : en:Chapter 5
00:23:57.511 : en:Chapter 6
00:26:41.871 : en:Chapter 7
00:30:22.071 : en:Chapter 8
00:34:59.271 : en:Chapter 9
00:39:03.951 : en:Chapter 10
00:41:04.751 : en:Chapter 11
00:43:58.791 : en:Chapter 12
00:48:09.791 : en:Chapter 13
00:52:06.751 : en:Chapter 14
00:55:07.871 : en:Chapter 15
00:58:26.711 : en:Chapter 16
01:02:00.711 : en:Chapter 17
01:06:51.911 : en:Chapter 18
01:11:03.951 : en:Chapter 19
01:13:56.351 : en:Chapter 20
01:17:27.511 : en:Chapter 21
01:22:36.551 : en:Chapter 22
01:26:51.031 : en:Chapter 23
01:30:02.631 : en:Chapter 24
01:34:34.871 : en:Chapter 25
01:37:44.951 : en:Chapter 26


Качество: WEB-DL 1080p (AMZN)
Формат: MKV
Видео: x264, 1920x1080 (16:9), 25.000 fps, ~10.3 Mbps avg, 0.199 bit/pixel
Аудио #1: Russian 48.0 KHz, AC3, 3/2 (L,C,R,l,r) + LFE ch, ~448.00 kbps avg |Tycoon|
Аудио #2: Russian 48.0 KHz, AC3, 3/2 (L,C,R,l,r) + LFE ch, ~384.00 kbps avg |SDI Media|
Аудио #3: English 48.0 KHz, AC3, 3/2 (L,C,R,l,r) + LFE ch, ~384.00 kbps avg |Original|
Субтитры: немецкие (хардсаб на русский язык), русские (SDI Media), английские (форс., полные)



   Похожие торренты   Торрент   Размер 
В этой теме нет новых непрочитанных сообщений. Свет Вокруг / Everything Is Illuminated (2005) DVDRip

22 | 2

701.55 МБ

В этой теме нет новых непрочитанных сообщений. Свет вокруг / Everything Is Illuminated (2005) DVDRip

128 | 5

1.45 ГБ

В этой теме нет новых непрочитанных сообщений. Свет вокруг / Everything Is Illuminated (2005) DVDRip-AVC

24 | 4

2.05 ГБ

В этой теме нет новых непрочитанных сообщений. Свет вокруг / Всё озарено / Everything Is Illuminated (2005) HDTV 720p | P

109 | 5

2.92 ГБ

В этой теме нет новых непрочитанных сообщений. Новый свет / The New World (2005) BDRip 1080p | Extended Cut

2 | 5

18.75 ГБ

В этой теме нет новых непрочитанных сообщений. Александр Розенбаум - Я вижу свет (2005) MP3

36 | 4

150.85 МБ

В этой теме нет новых непрочитанных сообщений. Новый Свет / The New World (2005) DVD9

2 | 5

7.4 ГБ




Вы не можете начинать темы
Вы не можете отвечать на сообщения
Вы не можете редактировать свои сообщения
Вы не можете удалять свои сообщения
Вы не можете добавлять вложения

Перейти:  
Для Мосгорсуда, Роскомнадзора и рекламодателей: mosgorsud-torrent[собачка]yandex.ru
 Вход
ppkBB3cker v.2 © 2008-2014 @ PPK
[ Time : 0.043s | 19 Queries | GZIP : Off ]

cron