img image001 image001 image001 image001 image001 image001 image001 image001 image001 image001 image001 image001 image001 image001 image001

Planets Sun Sun Sun
Статистика раздачи
Автор: Nickolas3434 | Размер: 2.16 ГБ | Добавлен: 12 янв 2018
Раздают: 25    Качают: 2
Скачать торрент
Скачать торрент
Описание торрента

СообщениеДобавлено: 12 янв 2018 

✦ Рокко и его братья / Rocco e i suoi fratelli ✦

Информация о фильме:
❖ Год выпуска: 1960
❖ Страна: Франция, Италия / Les Films Marceau, Titanus
❖ Жанр: драма, криминал
❖ Перевод: Профессиональный (многоголосый, закадровый) [Film Prestige]
❖ Продолжительность: 02:59:06
❖ Режиссер: Лукино Висконти
❖ В ролях: Ален Делон, Ренато Сальватори, Анни Жирардо, Катина Паксину, Спирос Фокас, Макс Картье, Коррадо Пани, Рокко Видолацци, Алессандра Панаро, Клаудия Мори, Адриана Асти, Энцо Фьермонте, Нино Кастельнуово, Розарио Борелли, Ренато Терра, Паоло Стоппа, Клаудия Кардинале, Сюзи Делер
❖ Релиз от:
❖ Автор рипа: ProT1gR
Описание фильма:
Одна из лучших картин Лукино Висконти, открывшая для кино Алена Делона и Анни Жирардо. Семейство Паронди (мать и пятеро сыновей) в поисках счастливой доли переезжает из полунищей Сицилии в промышленный Милан. Старший, Симоне, человек жестокий и агрессивный, делает карьеру на ринге. Ангельски красивый, тонкий и ранимый Рокко поначалу идет работать на фабрику, а затем тоже подается в боксеры. Материальное положение семьи нормализуется, но обычные человеческие пороки – вожделение и жадность, эгоизм и ревность – не дают обрести счастье. На беду для всех, и Симоне, и Рокко влюбляются в одну женщину.

Технические данные файла:
❖ Качество: HDRip-AVC (Исх. BDRip 720p от KORSAR)
❖ Формат: MKV
❖ Видео: 1024x552 (1.85:1), 24 fps, MPEG-4 AVC ~ 1 535 kbps (0.113 bit/pixel)
❖ Аудио: AC3, 48.0 KHz, 2 ch, 192 kbps
General
Unique ID : 182143591244446273714339195955568378155 (0x890794644F0D5B67AE3E61CB4C6F012B)
Complete name : Rocco e i suoi fratelli.(1960).HDRip-AVC.[Kaztorrents].mkv
Format : Matroska
Format version : Version 2
File size : 2.16 GiB
Duration : 2 h 59 min
Overall bit rate : 1 729 kb/s
Encoded date : UTC 2018-01-11 07:33:43
Writing application : mkvmerge v7.8.0 ('River Man') 32bit built on Apr 3 2015 12:11:22
Writing library : libebml v1.3.1 + libmatroska v1.4.2
Video
ID : 1
Format : AVC
Format/Info : Advanced Video Codec
Format profile : [email protected]
Format settings, CABAC : Yes
Format settings, ReFrames : 12 frames
Codec ID : V_MPEG4/ISO/AVC
Duration : 2 h 59 min
Bit rate : 1 535 kb/s
Width : 1 024 pixels
Height : 552 pixels
Display aspect ratio : 1.85:1
Frame rate mode : Constant
Frame rate : 24.000 FPS
Color space : YUV
Chroma subsampling : 4:2:0
Bit depth : 8 bits
Scan type : Progressive
Bits/(Pixel*Frame) : 0.113
Stream size : 1.88 GiB (87%)
Writing library : x264 core 146 r2538 121396c
Encoding settings : cabac=1 / ref=12 / deblock=1:-3:-3 / analyse=0x3:0x113 / me=umh / subme=11 / psy=1 / psy_rd=1.00:0.00 / mixed_ref=1 / me_range=48 / chroma_me=1 / trellis=2 / 8x8dct=1 / cqm=0 / deadzone=21,11 / fast_pskip=0 / chroma_qp_offset=-2 / threads=6 / lookahead_threads=1 / sliced_threads=0 / nr=0 / decimate=0 / interlaced=0 / bluray_compat=0 / constrained_intra=0 / bframes=12 / b_pyramid=2 / b_adapt=2 / b_bias=0 / direct=3 / weightb=1 / open_gop=0 / weightp=2 / keyint=240 / keyint_min=23 / scenecut=40 / intra_refresh=0 / rc_lookahead=40 / rc=2pass / mbtree=0 / bitrate=1535 / ratetol=1.0 / qcomp=0.60 / qpmin=0 / qpmax=69 / qpstep=4 / cplxblur=20.0 / qblur=0.5 / vbv_maxrate=50000 / vbv_bufsize=62500 / nal_hrd=none / filler=0 / ip_ratio=1.40 / pb_ratio=1.30 / aq=1:1.10
Default : Yes
Forced : No
Audio
ID : 2
Format : AC-3
Format/Info : Audio Coding 3
Format settings, Endianness : Big
Codec ID : A_AC3
Duration : 2 h 59 min
Bit rate mode : Constant
Bit rate : 192 kb/s
Channel(s) : 2 channels
Channel positions : Front: L R
Sampling rate : 48.0 kHz
Frame rate : 31.250 FPS (1536 spf)
Bit depth : 16 bits
Compression mode : Lossy
Stream size : 246 MiB (11%)
Service kind : Complete Main
Default : Yes
Forced : No





   Похожие торренты   Торрент   Размер 
В этой теме нет новых непрочитанных сообщений. Рокко и его братья / Rocco e i suoi fratelli (1960) DVD9

5 | 3

7.43 ГБ

В этой теме нет новых непрочитанных сообщений. Рокко и его братья / Rocco e i suoi fratelli (1960) DVDRip от MediaClub | КПК

20 | 5

762.91 МБ

В этой теме нет новых непрочитанных сообщений. Рокко и его братья / Rocco e i suoi fratelli (1960) DVDRip от Generalfilm

14 | 3

2.17 ГБ

В этой теме нет новых непрочитанных сообщений. Рокко и его братья / Rocco e i suoi fratelli (1960) BDRip 720p от KORSAR | P

10 | 5

11.24 ГБ

В этой теме нет новых непрочитанных сообщений. Рокко / Rocco (2016) HDRip | P2

106 | 14

1.46 ГБ

В этой теме нет новых непрочитанных сообщений. Рокко / Rocco (2016) BDRip 1080p | P2

50 | 4

14.09 ГБ

В этой теме нет новых непрочитанных сообщений. Рокко: Легенда крупным планом / Rocco (2016) WEBDLRip - AVC | P

40 | 0

1.39 ГБ




Вы не можете начинать темы
Вы не можете отвечать на сообщения
Вы не можете редактировать свои сообщения
Вы не можете удалять свои сообщения
Вы не можете добавлять вложения

Перейти:  
Для Мосгорсуда, Роскомнадзора и рекламодателей: mosgorsud-torrent[собачка]yandex.ru
 Вход
ppkBB3cker v.2 © 2008-2014 @ PPK
[ Time : 0.430s | 19 Queries | GZIP : Off ]

cron