Cute Little Buggers BluRay MicroHD
Teresa BluRay MicroHD
img image001 image001 image001 image001 image001 image001 image001 image001 image001 image001 image001 image001 image001 image001 image001 image001
Planets Sun Sun Sun
Статистика раздачи
Автор: Nickolas3434 | Размер: 1.46 ГБ | Добавлен: 15 янв 2018
Раздают: 1688    Качают: 34
Скачать торрент
Скачать торрент
Описание торрента

СообщениеДобавлено: 15 янв 2018 

Название: Три билборда на границе Эббинга, Миссури
Оригинальное название: Three Billboards Outside Ebbing, Missouri
Год выхода: 2017
Жанр: драма, комедия, криминал
Режиссер: Мартин МакДона
В ролях: Вуди Харрельсон, Фрэнсис МакДорманд, Калеб Лэндри Джонс, Керри Кондон, Эбби Корниш, Сэм Рокуэлл, Алехандро Барриос, Джейсон Редфорд, Даррел Бритт-Гибсон
О фильме:
Спустя несколько месяцев после убийства дочери Милдред Хейс преступники так и не найдены. Отчаявшаяся женщина решается на смелый шаг, арендуя на въезде в город три биллборда с посланием к авторитетному главе полиции Уильяму Уиллоуби. Когда в ситуацию оказывается втянут еще и заместитель шерифа, инфантильный маменькин сынок со склонностью к насилию, офицер Диксон, борьба между Милдред и властями города только усугубляется.

Страна: США, Великобритания
Производство: Fox Searchlight Pictures
Продолжительность: 01:55:04
Перевод: Aвторский (одноголосый)
Формат: AVI
Видео: Xvid, 720x304, ~1618 kbps
Аудио: Dolby Digital, 2.0, 192 kbps - Яроцкий

General
Complete name : F:Three.Billboards.Outside.Ebbing,Missouri.2017.DVDScr.XVID.AC3.HQ.Hive-CM8[EtMovies].avi
Format : AVI
Format/Info : Audio Video Interleave
File size : 1.46 GiB
Duration : 1 h 55 min
Overall bit rate : 1 822 kb/s
Video
ID : 0
Format : MPEG-4 Visual
Format profile : Advanced [email protected]
Format settings : BVOP2 / QPel
Format settings, BVOP : 2
Format settings, QPel : Yes
Format settings, GMC : No warppoints
Format settings, Matrix : Default (H.263)
Codec ID : XVID
Codec ID/Hint : XviD
Duration : 1 h 55 min
Bit rate : 1 618 kb/s
Width : 720 pixels
Height : 304 pixels
Display aspect ratio : 2.35:1
Frame rate : 29.970 (30000/1001) FPS
Color space : YUV
Chroma subsampling : 4:2:0
Bit depth : 8 bits
Scan type : Progressive
Compression mode : Lossy
Bits/(Pixel*Frame) : 0.247
Stream size : 1.30 GiB (89%)
Writing library : XviD 1.2.1 (UTC 2008-12-04)
Audio
ID : 1
Format : AC-3
Format/Info : Audio Coding 3
Codec ID : 2000
Duration : 1 h 55 min
Bit rate mode : Constant
Bit rate : 192 kb/s
Channel(s) : 2 channels
Channel positions : Front: L R
Sampling rate : 48.0 kHz
Frame rate : 31.250 FPS (1536 SPF)
Bit depth : 16 bits
Compression mode : Lossy
Delay relative to video : 32 ms
Stream size : 158 MiB (11%)
Alignment : Split accross interleaves
Interleave, duration : 32 ms (0.96 video frame)
Service kind : Complete Main



   Похожие торренты   Торрент   Размер 
В этой теме нет новых непрочитанных сообщений. Три билборда на границе Эббинга, Миссури / Three Billboards Outside Ebbing, Missouri (2017) DVDScr | Яроцкий

0 | 0

1.46 ГБ

В этой теме нет новых непрочитанных сообщений. Три билборда на границе Эббинга, Миссури / Three Billboards Outside Ebbing, Missouri (2017) DVDScr | L

603 | 26

1.37 ГБ

В этой теме нет новых непрочитанных сообщений. Три билборда на границе Эббинга, Миссури / Three Billboards Outside Ebbing, Missouri (2017) DVDScr | Sub

1517 | 59

1.41 ГБ

В этой теме нет новых непрочитанных сообщений. Три билборда на границе Эббинга, Миссури / Three Billboards Outside Ebbing, Missouri (Мартин МакДона) [2017, драма, комедия, криминал, BDRip] DUB+AVO

83 | 15

2.18 ГБ

В этой теме нет новых непрочитанных сообщений. Три билборда на границе Эббинга, Миссури / Three Billboards Outside Ebbing, Missouri (Мартин МакДона) [2017, драма, комедия, криминал, BDRip-AVC] DUB

298 | 44

2.2 ГБ

В этой теме нет новых непрочитанных сообщений. Три билборда на границе Эббинга, Миссури / Three Billboards Outside Ebbing, Missouri (Мартин МакДона) [2017, драма, комедия, криминал, BDRip] DUB

96 | 13

1.46 ГБ

В этой теме нет новых непрочитанных сообщений. Три билборда на границе Эббинга, Миссури / Three Billboards Outside Ebbing, Missouri (Мартин МакДона) [2017, драма, комедия, криминал, HDRip] DUB

169 | 0

2.18 ГБ




Вы не можете начинать темы
Вы не можете отвечать на сообщения
Вы не можете редактировать свои сообщения
Вы не можете удалять свои сообщения
Вы не можете добавлять вложения

Перейти:  
Для Мосгорсуда, Роскомнадзора и рекламодателей: mosgorsud-torrent[собачка]yandex.ru
 Вход
ppkBB3cker v.2 © 2008-2014 @ PPK
[ Time : 0.057s | 19 Queries | GZIP : Off ]

cron