Leif Edlund
Siim Maaten
img image001 image001 image001 image001 image001 image001 image001 image001 image001 image001 image001 image001 image001 image001 image001 image001
Planets Sun Sun Sun
Статистика раздачи
Автор: Nickolas3434 | Размер: 24.3 ГБ | Добавлен: 15 янв 2018
Раздают: 0    Качают: 0
Скачать торрент
Скачать торрент
Описание торрента

СообщениеДобавлено: 15 янв 2018 

Название: Счастливого дня смерти
Оригинальное название: Happy Death Day
Год выхода: 2017
Жанр: Триллер, ужасы, детектив
Режиссер: Кристофер Лэндон
В ролях: Джессика Рот, Израэль Бруссар, Руби Модин, Лаура Клифтон, Джейсон Бэйл, Роб Мелло, Рэйчел Мэттьюз, Фи Ву и др.
О фильме:
Каждый в универе мечтал попасть на её день рождения, но праздник был безнадежно испорчен незнакомцем в маске, убившим виновницу торжества. Однако судьба преподнесла имениннице леденящий душу подарок — бесконечный запас жизней. И теперь у девушки появился шанс вычислить своего убийцу, ведь этот день будет повторяться снова и снова.

Страна: США
Студия: Universal Pictures
Продолжительность: 01:36:11
Перевод: профессиональный (многоголосый), любительский (многоголосый)
Субтитры: английские
Формат: MKV
Качество: BDRemux 1080p
Видео: MPEG-4 AVC / 31991 kbps / 1920x1080 / 23.976 fps
Звук:
Аудио 1: Russian / Dolby Digital Audio / 2.0 / 48 kHz / 384 kbps - Многоголосый (AlexFilm)
Аудио 2: Russian / Dolby Digital Audio / 5.1 / 48 kHz / 448 kbps - Многоголосый (Paradox & Omskbird)
Аудио 3: English / DTS-HD Master Audio / 5.1 / 48 kHz / 3886 kbps - Оригинал
Внимание! Присутствует ненормативная лексика.
Format : Matroska
Format version : Version 2
File size : 24.3 GiB
Duration : 1 h 36 min
Overall bit rate mode : Variable
Overall bit rate : 36.2 Mb/s
Movie name : Happy Death Day (2017)
Encoded date : UTC 2018-01-14 07:00:54
Writing application : mkvmerge v4.9.1 ('Ich will') сборка от Jul 11 2011 23:53:15
Writing library : libebml v1.2.1 + libmatroska v1.1.1
Video
ID : 1
Format : AVC
Format/Info : Advanced Video Codec
Format profile : [email protected]
Format settings, CABAC : Yes
Format settings, RefFrames : 4 frames
Codec ID : V_MPEG4/ISO/AVC
Duration : 1 h 36 min
Bit rate mode : Variable
Maximum bit rate : 35.0 Mb/s
Width : 1 920 pixels
Height : 1 080 pixels
Display aspect ratio : 16:9
Frame rate mode : Constant
Frame rate : 23.976 (24000/1001) FPS
Color space : YUV
Chroma subsampling : 4:2:0
Bit depth : 8 bits
Scan type : Progressive
Title : Счастливого дня смерти
Language : English
Default : Yes
Forced : No
Audio #1
ID : 2
Format : AC-3
Format/Info : Audio Coding 3
Format settings, Endianness : Big
Codec ID : A_AC3
Duration : 1 h 36 min
Bit rate mode : Constant
Bit rate : 384 kb/s
Channel(s) : 2 channels
Channel positions : Front: L R
Sampling rate : 48.0 kHz
Frame rate : 31.250 FPS (1536 SPF)
Bit depth : 16 bits
Compression mode : Lossy
Stream size : 264 MiB (1%)
Title : Многоголосый (AlexFilm)
Language : Russian
Service kind : Complete Main
Default : Yes
Forced : No
Audio #2
ID : 3
Format : AC-3
Format/Info : Audio Coding 3
Format settings, Endianness : Big
Codec ID : A_AC3
Duration : 1 h 36 min
Bit rate mode : Constant
Bit rate : 448 kb/s
Channel(s) : 6 channels
Channel positions : Front: L C R, Side: L R, LFE
Sampling rate : 48.0 kHz
Frame rate : 31.250 FPS (1536 SPF)
Bit depth : 16 bits
Compression mode : Lossy
Stream size : 308 MiB (1%)
Title : Многоголосый (Paradox & Omskbird)
Language : Russian
Service kind : Complete Main
Default : No
Forced : No
Audio #3
ID : 4
Format : DTS
Format/Info : Digital Theater Systems
Format profile : MA / Core
Mode : 16
Format settings, Endianness : Big
Codec ID : A_DTS
Duration : 1 h 36 min
Bit rate mode : Variable / Constant
Bit rate : Unknown / 1 509 kb/s
Channel(s) : 6 channels
Channel positions : Front: L C R, Side: L R, LFE
Sampling rate : 48.0 kHz
Frame rate : 93.750 FPS (512 SPF)
Bit depth : 24 bits
Compression mode : Lossless / Lossy
Title : Оригинал
Language : English
Default : No
Forced : No
Text #1
ID : 5
Format : UTF-8
Codec ID : S_TEXT/UTF8
Codec ID/Info : UTF-8 Plain Text
Title : full
Language : English
Default : No
Forced : No
Text #2
ID : 6
Format : UTF-8
Codec ID : S_TEXT/UTF8
Codec ID/Info : UTF-8 Plain Text
Title : SDH
Language : English
Default : No
Forced : No
Menu
00:00:00.000 : en:Chapter 01
00:04:54.460 : en:Chapter 02
00:10:26.000 : en:Chapter 03
00:14:10.683 : en:Chapter 04
00:21:46.722 : en:Chapter 05
00:25:08.798 : en:Chapter 06
00:29:37.859 : en:Chapter 07
00:33:09.320 : en:Chapter 08
00:37:50.142 : en:Chapter 09
00:41:46.170 : en:Chapter 10
00:44:54.191 : en:Chapter 11
00:53:07.934 : en:Chapter 12
00:57:28.361 : en:Chapter 13
01:00:18.448 : en:Chapter 14
01:07:41.557 : en:Chapter 15
01:12:16.290 : en:Chapter 16
01:16:35.090 : en:Chapter 17
01:21:17.080 : en:Chapter 18
01:27:13.645 : en:Chapter 19
01:30:24.168 : en:Chapter 20




   Похожие торренты   Торрент   Размер 
В этой теме нет новых непрочитанных сообщений. Счастливого дня смерти / Happy Death Day (2017) BDRemux 1080p | D, P, L, A | iTunes

76 | 29

27.17 ГБ

В этой теме нет новых непрочитанных сообщений. Счастливого дня смерти / Happy Death Day (2017) HDTV 1080p | L

702 | 26

3.66 ГБ

В этой теме нет новых непрочитанных сообщений. Счастливого дня смерти / Happy Death Day (2017) BDRip 1080p от HELLYWOOD | P, L

187 | 3

6.17 ГБ

В этой теме нет новых непрочитанных сообщений. Счастливого дня смерти / Happy Death Day (2017) WEBRip 1080p | Трейлер

41 | 4

219.96 МБ

В этой теме нет новых непрочитанных сообщений. Счастливого дня смерти / Happy Death Day (2017) BDRip 1080p | iTunes

0 | 0

8.67 ГБ

В этой теме нет новых непрочитанных сообщений. Счастливого дня смерти / Happy Death Day (2017) BDRip-HEVC 1080p от ХиМиК | P, L

36 | 0

3.87 ГБ

В этой теме нет новых непрочитанных сообщений. Счастливого дня смерти / Happy Death Day (2017) WEBRip | L

0 | 0

1.37 ГБ




Вы не можете начинать темы
Вы не можете отвечать на сообщения
Вы не можете редактировать свои сообщения
Вы не можете удалять свои сообщения
Вы не можете добавлять вложения

Перейти:  
Для Мосгорсуда, Роскомнадзора и рекламодателей: mosgorsud-torrent[собачка]yandex.ru
 Вход
ppkBB3cker v.2 © 2008-2014 @ PPK
[ Time : 0.061s | 21 Queries | GZIP : Off ]

cron