img image001 image001 image001 image001 image001 image001 image001 image001 image001 image001 image001 image001 image001 image001 image001
Planets Sun Sun Sun
Статистика раздачи
Автор: Nickolas3434 | Размер: 2.18 ГБ | Добавлен: 22 янв 2018
Раздают: 13    Качают: 0
Скачать торрент
Скачать торрент
Описание торрента

СообщениеДобавлено: 22 янв 2018 




Информация о фильме
Название: Залечь на дно в Брюгге
Оригинальное название: In Bruges
Год выхода: 2008
Жанр: триллер, драма, комедия, криминал
Режиссер: Мартин МакДона
В ролях: Колин Фаррелл, Брендан Глисон, Рэйф Файнс, Клеменс Поэзи, Джордан Прентис, Текла Рютен, Желько Иванек, Жереми Ренье, Эрик Годон
О фильме:
После того, как наемные убийцы Рэй и Кен запороли в Лондоне важное задание, их злобный шеф Гарри приказывает им отправиться в Брюгге и не высовываться. Оказавшись в старинном бельгийском городке, Рэй от нечего делать флиртует с местной красоткой, пока Кен наслаждается жизнью и неожиданным отпуском. Кажется, ничто не предвещает беду в спокойном городе…

Выпущено: США, Великобритания
Продолжительность: 01:46:49
Перевод: Профессиональный (полное дублирование)
Файл
Формат: MKV
Качество: HybridRip-AVC | Open Matte [Hybrid 1080p [Open Matte] -BLUEBIRD]
Видео: [email protected], 1042x586, ~2475 Кбит/с
Аудио: AC3, 6 ch, 448 kbps
Cубтитры: Русские, английские
BluRay vs Open Matte


General
Unique ID : 73117393216404509308726531143852145789 (0x3701E5D000621289A32748EEF800BC7D)
Complete name : F:FILMSЗалечь на дно в Брюгге.(1995).HybridRIP-AVC.Open Matte.[-=DoMiNo=-].mkv
Format : Matroska
Format version : Version 4 / Version 2
File size : 2.18 GiB
Duration : 1 h 46 min
Overall bit rate : 2 926 kb/s
Movie name : Залечь на дно в Брюгге
Deion : После того, как наемные убийцы Рэй и Кен запороли в Лондоне важное задание, их злобный шеф Гарри приказывает им отправиться в Брюгге и не высовываться. Оказавшись в старинном бельгийском городке, Рэй от нечего делать флиртует с местной красоткой, пока Кен наслаждается жизнью и неожиданным отпуском. Кажется, ничто не предвещает беду в спокойном городе…
Writing application : XviD4PSP 7.0.439 DAILY
Writing library : Lavf57.71.100
Cover : Yes
ErrorDetectionType : Per level 1
Attachments : cover.jpg
COMPOSER : Картер Бёруэлл
COUNTRY : Великобритания, США
DATE : 2007
DIRECTOR : Мартин МакДона
GENRE : триллер, драма, комедия, криминал
HD_VIDEO : 1
IMDB_RATING : 7.90
ITUNEXTC : mpaa|R|400|
Language : und
MEDIA_TYPE : 9
ORIGINAL_TITLE : In Bruges
PRODUCER : Грэм Бродбент, Джефф Абберли, Джулия Блэкман, Питер Чернин, Сара Харви, Тесса Росс, Роналдо Васконселлос
RATING : 7.733
WRITER : Мартин МакДона
Video
ID : 1
Format : AVC
Format/Info : Advanced Video Codec
Format profile : [email protected]
Format settings : CABAC / 11 Ref Frames
Format settings, CABAC : Yes
Format settings, ReFrames : 11 frames
Codec ID : V_MPEG4/ISO/AVC
Duration : 1 h 46 min
Bit rate : 2 475 kb/s
Width : 1 042 pixels
Height : 586 pixels
Display aspect ratio : 16:9
Frame rate mode : Constant
Frame rate : 24.000 FPS
Color space : YUV
Chroma subsampling : 4:2:0
Bit depth : 8 bits
Scan type : Progressive
Bits/(Pixel*Frame) : 0.169
Stream size : 1.80 GiB (83%)
Title : RIP_BY_-=DoMiNo=-
Writing library : x264 core 155 r2893M b00bcaf
Encoding settings : cabac=1 / ref=11 / deblock=1:-3:-3 / analyse=0x3:0x133 / me=umh / subme=11 / psy=1 / psy_rd=1.00:0.15 / mixed_ref=1 / me_range=56 / chroma_me=1 / trellis=2 / 8x8dct=1 / cqm=0 / deadzone=21,11 / fast_pskip=1 / chroma_qp_offset=-3 / threads=5 / lookahead_threads=1 / sliced_threads=0 / nr=0 / decimate=1 / interlaced=0 / bluray_compat=0 / constrained_intra=0 / bframes=12 / b_pyramid=2 / b_adapt=2 / b_bias=0 / direct=3 / weightb=1 / open_gop=0 / weightp=2 / keyint=240 / keyint_min=24 / scenecut=40 / intra_refresh=0 / rc_lookahead=60 / rc=2pass / mbtree=1 / bitrate=2475 / ratetol=1.0 / qcomp=0.70 / qpmin=0 / qpmax=69 / qpstep=4 / cplxblur=20.0 / qblur=0.5 / ip_ratio=1.40 / aq=1:1.00
Language : English
Default : Yes
Forced : No
Color range : Limited
Color primaries : BT.709
Transfer characteristics : BT.709
Matrix coefficients : BT.709
Audio
ID : 2
Format : AC-3
Format/Info : Audio Coding 3
Codec ID : A_AC3
Duration : 1 h 46 min
Bit rate mode : Constant
Bit rate : 448 kb/s
Channel(s) : 6 channels
Channel positions : Front: L C R, Side: L R, LFE
Sampling rate : 48.0 kHz
Frame rate : 31.250 FPS (1536 SPF)
Bit depth : 16 bits
Compression mode : Lossy
Stream size : 342 MiB (15%)
Title : DUB
Language : Russian
Service kind : Complete Main
Default : Yes
Forced : No
Text #1
ID : 3
Format : UTF-8
Codec ID : S_TEXT/UTF8
Codec ID/Info : UTF-8 Plain Text
Title : R5 Paradise
Language : Russian
Default : Yes
Forced : No
Text #2
ID : 4
Format : UTF-8
Codec ID : S_TEXT/UTF8
Codec ID/Info : UTF-8 Plain Text
Title : English
Language : English
Default : No
Forced : No
Text #3
ID : 5
Format : UTF-8
Codec ID : S_TEXT/UTF8
Codec ID/Info : UTF-8 Plain Text
Title : English (SDH)
Language : English
Default : No
Forced : No
Menu
00:00:00.000 : :Medie.val Town
00:04:39.449 : :Terrible Tourist
00:10:00.615 : :Seeing the Sights
00:15:20.364 : :Message Received
00:20:19.572 : :Holy Blood
00:25:17.822 : :Purgatory
00:30:33.154 : :My Hometown
00:36:46.362 : :Like a Fairy Tale
00:43:18.903 : :Someone Nice
00:46:50.528 : :Drowning Sorrows
00:50:33.777 : :Choose a Side
00:54:20.569 : :Suicidal
01:00:18.152 : :Keep on Moving
01:07:12.234 : :Back to Bruges
01:12:22.817 : :Capacity to Change
01:17:39.650 : :In Your Debt
01:23:47.108 : :Last Chance
01:29:10.399 : :Will to Live
01:36:36.231 : :Principles
01:41:08.564 : :End Titles





   Похожие торренты   Торрент   Размер 
В этой теме нет новых непрочитанных сообщений. Залечь на дно в Брюгге / In Bruges (2008) HDRip | D | Open Matte

20 | 0

1.45 ГБ

В этой теме нет новых непрочитанных сообщений. Залечь на дно в Брюгге / In Bruges (2008) HDRip-AVC от Kaztorrents | D | Open Matte

53 | 2

1.46 ГБ

В этой теме нет новых непрочитанных сообщений. Залечь на дно в Брюгге / In Bruges (2008) WEBRip-AVC | Open Matte | Кубик в кубе

119 | 14

2.91 ГБ

В этой теме нет новых непрочитанных сообщений. Залечь на дно в Брюгге / Однажды в Брюгге / In Bruges (2008) HDRip от Scarabey

412 | 17

1.45 ГБ

В этой теме нет новых непрочитанных сообщений. Залечь на дно в Брюгге / Однажды в Брюгге / In Bruges (2008) HDRip от Scarabey

189 | 8

744.93 МБ

В этой теме нет новых непрочитанных сообщений. Залечь на дно в Брюгге / In Bruges (2008) DVD5

0 | 1

4.37 ГБ

В этой теме нет новых непрочитанных сообщений. Залечь на дно в Брюгге / In Bruges (2008) HDRip-AVC | Р, D, А

62 | 3

2.16 ГБ




Вы не можете начинать темы
Вы не можете отвечать на сообщения
Вы не можете редактировать свои сообщения
Вы не можете удалять свои сообщения
Вы не можете добавлять вложения

Перейти:  
Для Мосгорсуда, Роскомнадзора и рекламодателей: mosgorsud-torrent[собачка]yandex.ru
 Вход
ppkBB3cker v.2 © 2008-2014 @ PPK
[ Time : 0.055s | 19 Queries | GZIP : Off ]

cron