Episode 11 - There's No Place Like Home
Episode 10 - The Hunter Games
img image001 image001 image001 image001 image001 image001 image001 image001 image001 image001 image001 image001 image001 image001 image001 image001
Planets Sun Sun Sun
Статистика раздачи
Автор: PriZraK | Размер: 2.54 ГБ | Добавлен: 12 фев 2018
Раздают: 40    Качают: 0
Скачать торрент
Скачать торрент
Описание торрента

СообщениеДобавлено: 12 фев 2018 

Информация о фильме
Название: Мисс Слоун
Оригинальное название: Miss Sloane
Год выхода: 2016
Жанр: Триллер, драма
Режиссер: Джон Мэдден
В ролях: Джессика Честейн, Гугу Эмбата-Ро, Марк Стронг, Джон Литгоу, Элисон Пилл, Майкл Стулбарг, Джейк Лэси, Сэм Уотерстон, Дуглас Смит, Дилан Бэйкер
О фильме:
История о блестящем и беспощадном лоббисте, которая прославилась беспрецедентным талантом и желанием победить любой ценой, даже тогда, когда это ставит ее карьеру под угрозу. Встречайте Элизабет Слоун. Она лоббист и настоящий мастер своего дела. О ней идут легенды, и эту женщину недооценивать нельзя. Она берется за самое сложное и опасное дело в своей жизни и решает его выиграть не смотря ни на что. На кону все: ее карьера, ее репутация, имидж фирмы, на которую она стала работать. На женщину оказывается нереально большое давление, но в этой изощренной и запутанной игре она должна победить, ведь таких как мисс Слоун больше не бывает…


Выпущено: Великобритания, США, Франция, Archery Pictures, FilmNation Entertainment, Transfilm
Продолжительность: 02:12:11
Перевод: Любительский (двухголосый закадровый) lord666 и Анна Полевская
Файл
Кодек: H.264
Качество: BDRip (AVC)
Видео: MPEG-4 AVC, 1849 Кбит/с, 1024x428
Звук: Русский, английский (AC3, 6 ch, 448 Кбит/с)
Субтитры: Русские, английские

Без какой-либо рекламы
Формат : Matroska
Версия формата : Version 4 / Version 2
Размер файла : 2,54 Гбайт
Продолжительность : 2 ч. 12 м.
Общий поток : 2747 Кбит/сек
Название фильма : Miss.Sloun.2016.x264.BDRip.AVC.ExKinoRay
Дата кодирования : UTC 2018-02-10 17:39:49
Программа кодирования : mkvmerge v17.0.0 ('Be Ur Friend') 64-bit
Библиотека кодирования : libebml v1.3.5 + libmatroska v1.4.8

Видео
Идентификатор : 1
Формат : AVC
Формат/Информация : Advanced Video Codec
Профиль формата : [email protected]
Параметр CABAC формата : Да
Параметр ReFrames формата : 12 кадров
Идентификатор кодека : V_MPEG4/ISO/AVC
Продолжительность : 2 ч. 12 м.
Битрейт : 1849 Кбит/сек
Ширина : 1024 пикселя
Высота : 428 пикселей
Соотношение сторон : 2,40:1
Режим частоты кадров : Постоянный
Частота кадров : 23,976 (24000/1001) кадра/сек
Цветовое пространство : YUV
Субдискретизация насыщенности : 4:2:0
Битовая глубина : 8 бит
Тип развёртки : Прогрессивная
Бит/(Пиксели*Кадры) : 0.176
Размер потока : 1,71 Гбайт (67%)
Заголовок : ExKinoRay
Библиотека кодирования : x264 core 146 r2538 121396c
Настройки программы : cabac=1 / ref=12 / deblock=1:-2:-2 / analyse=0x3:0x113 / me=umh / subme=11 / psy=1 / psy_rd=1.00:0.00 / mixed_ref=1 / me_range=32 / chroma_me=1 / trellis=2 / 8x8dct=1 / cqm=0 / deadzone=21,11 / fast_pskip=0 / chroma_qp_offset=-3 / threads=6 / lookahead_threads=1 / sliced_threads=0 / nr=0 / decimate=0 / interlaced=0 / bluray_compat=0 / constrained_intra=0 / bframes=10 / b_pyramid=2 / b_adapt=2 / b_bias=0 / direct=3 / weightb=1 / open_gop=0 / weightp=2 / keyint=240 / keyint_min=23 / scenecut=40 / intra_refresh=0 / rc_lookahead=40 / rc=2pass / mbtree=0 / bitrate=1849 / ratetol=1.0 / qcomp=0.60 / qpmin=0 / qpmax=51 / qpstep=4 / cplxblur=20.0 / qblur=0.5 / vbv_maxrate=50000 / vbv_bufsize=62500 / nal_hrd=none / filler=0 / ip_ratio=1.40 / pb_ratio=1.30 / aq=2:1.00
Язык : English
Default : Да
Forced : Нет

Аудио #1
Идентификатор : 2
Формат : AC-3
Формат/Информация : Audio Coding 3
Расширение режима : CM (complete main)
Параметр Endianness формата : Big
Идентификатор кодека : A_AC3
Продолжительность : 2 ч. 12 м.
Вид битрейта : Постоянный
Битрейт : 448 Кбит/сек
Каналы : 6 каналов
Расположение каналов : Front: L C R, Side: L R, LFE
Частота : 48,0 КГц
Частота кадров : 31,250 кадров/сек (1536 spf)
Битовая глубина : 16 бит
Метод сжатия : С потерями
Размер потока : 424 Мбайт (16%)
Язык : Russian
Default : Да
Forced : Нет

Аудио #2
Идентификатор : 3
Формат : AC-3
Формат/Информация : Audio Coding 3
Расширение режима : CM (complete main)
Параметр Endianness формата : Big
Идентификатор кодека : A_AC3
Продолжительность : 2 ч. 12 м.
Вид битрейта : Постоянный
Битрейт : 448 Кбит/сек
Каналы : 6 каналов
Расположение каналов : Front: L C R, Side: L R, LFE
Частота : 48,0 КГц
Частота кадров : 31,250 кадров/сек (1536 spf)
Битовая глубина : 16 бит
Метод сжатия : С потерями
Размер потока : 424 Мбайт (16%)
Язык : English
Default : Нет
Forced : Нет

Текст #1
Идентификатор : 4
Формат : UTF-8
Идентификатор кодека : S_TEXT/UTF8
Идентификатор кодека/Информация : UTF-8 Plain Text
Продолжительность : 2 ч. 6 м.
Битрейт : 177 бит/сек
Count of elements : 1667
Размер потока : 164 Кбайт (0%)
Язык : Russian
Default : Нет
Forced : Нет

Текст #2
Идентификатор : 5
Формат : UTF-8
Идентификатор кодека : S_TEXT/UTF8
Идентификатор кодека/Информация : UTF-8 Plain Text
Продолжительность : 2 ч. 7 м.
Битрейт : 110 бит/сек
Count of elements : 1635
Размер потока : 103 Кбайт (0%)
Язык : English
Default : Нет
Forced : Нет

Меню
00:00:00.000 : en:Chapter 01
00:03:17.572 : en:Chapter 02
00:10:01.810 : en:Chapter 03
00:14:33.331 : en:Chapter 04
00:21:39.632 : en:Chapter 05
00:27:24.601 : en:Chapter 06
00:30:24.614 : en:Chapter 07
00:35:40.597 : en:Chapter 08
00:40:37.018 : en:Chapter 09
00:45:36.651 : en:Chapter 10
00:50:08.130 : en:Chapter 11
00:56:55.662 : en:Chapter 12
01:01:31.146 : en:Chapter 13
01:05:00.563 : en:Chapter 14
01:10:10.415 : en:Chapter 15
01:15:56.552 : en:Chapter 16
01:22:25.399 : en:Chapter 17
01:31:17.097 : en:Chapter 18
01:35:47.825 : en:Chapter 19
01:41:48.436 : en:Chapter 20
01:45:25.653 : en:Chapter 21
01:54:30.781 : en:Chapter 22
02:03:40.288 : en:Chapter 23
02:08:02.008 : en:Chapter 24


Релиз от:



   Похожие торренты   Торрент   Размер 
В этой теме нет новых непрочитанных сообщений. Мисс Слоун / Miss Sloane (2016) BDRip 1080 | L2

0 | 0

10.13 ГБ

В этой теме нет новых непрочитанных сообщений. Мисс Слоун / Miss Sloane (2016) WEBRip | L

336 | 9

1.37 ГБ

В этой теме нет новых непрочитанных сообщений. Мисс Слоун / Miss Sloane (2016) WEBRip | L

153 | 2

2.05 ГБ

В этой теме нет новых непрочитанных сообщений. Мисс Слоун / Miss Sloane (2016) HDRip от Portablius | L2

0 | 0

746.98 МБ

В этой теме нет новых непрочитанных сообщений. Мисс Слоун / Miss Sloane (2016) WEBRip 720р | L

73 | 3

3.94 ГБ

В этой теме нет новых непрочитанных сообщений. Дом странных детей Мисс Перегрин / Miss Peregrine's Home for Peculiar Children (2016) BDRip от ExKinoRay | Лицензия

61 | 9

2.18 ГБ

В этой теме нет новых непрочитанных сообщений. Дом странных детей Мисс Перегрин / Miss Peregrine's Home for Peculiar Children (2016) BDRip от ExKinoRay | Лицензия

98 | 18

1.46 ГБ




Вы не можете начинать темы
Вы не можете отвечать на сообщения
Вы не можете редактировать свои сообщения
Вы не можете удалять свои сообщения
Вы не можете добавлять вложения

Перейти:  
Для Мосгорсуда, Роскомнадзора и рекламодателей: mosgorsud-torrent[собачка]yandex.ru
 Вход
ppkBB3cker v.2 © 2008-2014 @ PPK
[ Time : 0.033s | 19 Queries | GZIP : Off ]

cron