img image001 image001 image001 image001 image001 image001 image001 image001 image001 image001 image001 image001 image001 image001 image001
Planets Sun Sun Sun
Статистика раздачи
Автор: Снежана | Размер: 745.98 МБ | Добавлен: 14 фев 2018
Раздают: 92    Качают: 2
Скачать торрент
Скачать торрент
Описание торрента

СообщениеДобавлено: 14 фев 2018 

Ритуал / The Ritual

Перевод: Любительский (двухголосый) Sky Voices, субтитры: русские
Формат: WEB-DLRip-AVC, MKV, H.264, AAC
Страна: Великобритания
Режиссер: Дэвид Брукнер
Жанр: ужасы
Продолжительность: 01:34:06
Год выпуска: 2017

В ролях: Рейф Сполл, Роб Джеймс-Колльер, Сэм Тротон, Аршер Али, Пол Рейд, Керри МакЛин, Мария Эрвольтер

Описание: Четверо бывших одноклассников отправляются в поход по горам и лесам, чтобы почтить память погибшего друга. Сначала они придерживаются общепринятого маршрута, но затем решают немного прогуляться в сторону от натоптанной тропы и находят в лесу странный дом.



Видео: 842x420 (2.0:1), 23.976 fps, AVC MPEG-4 (H.264), ~1043 kbps, 0.123 bit/pixel
Аудио: 48 kHz, AАС-HE, 2 ch, ~64 kbps


Формат : Matroska
Версия формата : Version 4 / Version 2
Размер файла : 746 Мбайт
Продолжительность : 1 ч. 34 м.
Общий поток : 1108 Кбит/сек
Название фильма : The Ritual (2017) (Rip by stalkerok)
Дата кодирования : UTC 2018-02-12 13:44:03
Программа кодирования : mkvmerge v8.6.1 ('Flying') 64bit
Библиотека кодирования : libebml v1.3.3 + libmatroska v1.4.4

Видео
Идентификатор : 2
Формат : AVC
Формат/Информация : Advanced Video Codec
Профиль формата :
Параметр CABAC формата : Да
Параметр ReFrames формата : 12 кадров
Идентификатор кодека : V_MPEG4/ISO/AVC
Продолжительность : 1 ч. 34 м.
Битрейт : 1043 Кбит/сек
Ширина : 842 пикселя
Высота : 420 пикселей
Соотношение сторон : 2,005
Режим частоты кадров : Постоянный
Частота кадров : 23,976 (24000/1001) кадра/сек
Цветовое пространство : YUV
Субдискретизация насыщенности : 4:2:0
Битовая глубина : 8 бит
Тип развёртки : Прогрессивная
Бит/(Пиксели*Кадры) : 0.123
Размер потока : 702 Мбайт (94%)
Заголовок : The Ritual (2017) (Rip by stalkerok)
Библиотека кодирования : x264 core 152 r2851kMod ba24899
Настройки программы : cabac=1 / ref=12 / deblock=1:-3:-2 / analyse=0x3:0x133 / me=umh / subme=11 / psy=1 / fade_compensate=0.00 / psy_rd=1.00:0.00 / mixed_ref=1 / me_range=32 / chroma_me=1 / trellis=2 / 8x8dct=1 / cqm=0 / deadzone=21,11 / fast_pskip=0 / chroma_qp_offset=-2 / threads=12 / lookahead_threads=3 / sliced_threads=0 / nr=0 / decimate=0 / interlaced=0 / bluray_compat=0 / constrained_intra=0 / bframes=16 / b_pyramid=2 / b_adapt=2 / b_bias=0 / direct=3 / weightb=1 / open_gop=0 / weightp=2 / keyint=240 / keyint_min=23 / scenecut=40 / intra_refresh=0 / rc_lookahead=60 / rc=2pass / mbtree=0 / bitrate=1043 / ratetol=1.0 / qcomp=0.65 / qpmin=0 / qpmax=69 / qpstep=4 / cplxblur=20.0 / qblur=0.5 / vbv_maxrate=50000 / vbv_bufsize=62500 / nal_hrd=none / filler=0 / ip_ratio=1.40 / pb_ratio=1.30 / aq=3:0.90 / zones=129750,135373,q=34
Default : Да
Forced : Нет

Аудио
Идентификатор : 3
Формат : AAC
Формат/Информация : Advanced Audio Codec
Профиль формата : HE-AAC / LC
Идентификатор кодека : A_AAC
Продолжительность : 1 ч. 34 м.
Битрейт : 64,0 Кбит/сек
Каналы : 2 канала
Расположение каналов : Front: L R
Частота : 48,0 КГц / 24,0 КГц
Частота кадров : 23,438 кадра/сек (1024 spf)
Метод сжатия : С потерями
Задержка видео : 31 мс.
Размер потока : 43,1 Мбайт (6%)
Язык : Russian
Default : Да
Forced : Нет

Текст
Идентификатор : 1
Формат : UTF-8
Идентификатор кодека : S_TEXT/UTF8
Идентификатор кодека/Информация : UTF-8 Plain Text
Продолжительность : 1 ч. 26 м.
Битрейт : 71 бит/сек
Count of elements : 810
Размер потока : 45,0 Кбайт (0%)
Заголовок : FOCS (Переводчики: Nichtingal, pyladean)
Язык : Russian
Default : Нет
Forced : Нет

Меню
00:00:00.000 : en:Chapter 1
00:10:06.731 : en:Chapter 2
00:17:04.815 : en:Chapter 3
00:26:09.734 : en:Chapter 4
00:36:45.411 : en:Chapter 5
00:44:52.189 : en:Chapter 6
00:55:33.079 : en:Chapter 7
01:03:48.491 : en:Chapter 8
01:12:47.363 : en:Chapter 9
01:19:14.875 : en:Chapter 10
01:30:11.656 : en:Chapter 11












   Похожие торренты   Торрент   Размер 
В этой теме нет новых непрочитанных сообщений. Ритуал / The Ritual (Дэвид Брукнер) [2017, ужасы, WEB-DLRip-AVC] DVO / Мистика

378 | 22

1.46 ГБ

В этой теме нет новых непрочитанных сообщений. Ритуал / The Ritual (Дэвид Брукнер) [2017, ужасы, WEBDLRip] DVO / Мистика

24 | 2

1.46 ГБ

В этой теме нет новых непрочитанных сообщений. Ритуал / The Ritual (2017) WEB-DLRip | Sub

105 | 6

1.46 ГБ

В этой теме нет новых непрочитанных сообщений. Ритуал / The Ritual (2017) WEB-DLRip | L1

395 | 4

942.57 МБ

В этой теме нет новых непрочитанных сообщений. Ритуал / The Ritual (2017) WEBRip | L1

119 | 3

1.01 ГБ

В этой теме нет новых непрочитанных сообщений. Ритуал / The Ritual (2017) WEB-DL 1080p | Sub

262 | 11

3.3 ГБ

В этой теме нет новых непрочитанных сообщений. Ритуал / Ritual (2002) DVDRip-AVC | P

35 | 1

3.63 ГБ




Вы не можете начинать темы
Вы не можете отвечать на сообщения
Вы не можете редактировать свои сообщения
Вы не можете удалять свои сообщения
Вы не можете добавлять вложения

Перейти:  
Для Мосгорсуда, Роскомнадзора и рекламодателей: mosgorsud-torrent[собачка]yandex.ru
 Вход
ppkBB3cker v.2 © 2008-2014 @ PPK
[ Time : 0.044s | 17 Queries | GZIP : Off ]

cron