Kinderfilm
Kriegsfilm
img image001 image001 image001 image001 image001 image001 image001 image001 image001 image001 image001 image001 image001 image001 image001 image001
Planets Sun Sun Sun
Статистика раздачи
Автор: Снежана | Размер: 2.91 ГБ | Добавлен: 14 фев 2018
Раздают: 3    Качают: 3
Скачать торрент
Скачать торрент
Описание торрента

СообщениеДобавлено: 14 фев 2018 

Мефисто / Mephisto


Перевод: Профессиональный (полное дублирование)+профессиональный (двухголосый), субтитры: отсутствуют
Формат: DVDRip-AVC, MKV, H.264, AC3
Страна: Германия (ФРГ), Австрия, Венгрия
Режиссер: Иштван Сабо
Жанр: драма
Продолжительность: 02:18:06
Год выпуска: 1981
В ролях: Клаус Мария Брандауэр, Кристина Янда, Ильдико Баншаги, Рольф Хоппе, Дьёрдь Черхальми, Петер Андораи, Карин Бойд, Кристин Харборт, Тамаш Майор, Илдико Кишонти
Описание:
Актер Хендрик Хофген мечтает о славе, но добиться ее никак не удается. Театральные постановки, в которых он принимает участие, не проваливаются, они даже вызывают одобрения у критиков, но о настоящем признании Хендрику приходится только мечтать. Раньше люди для достижения своих целей продавали душу дьяволу, вот и Хофген решает продать свою душу ради успеха.
Но покупателем души актера, становится дьявол в переносном смысле - нацисты. Он ненавидит захватчиков, но ради славы готов пойти на сделку с кем угодно. Но за все, рано или поздно, приходится расплачиваться...

Экранизация по произведению Клауса Манна




Видео: 856x480 (16:9) 25.00 fps, MPEG4 AVC (x264) , 1867 kbps avg, 0.182 bit/pixel
Аудио #1: Русский: 48 kHz, AC3 Dolby Digital, 3/2 (L,C,R,l,r) + LFE ch, ~448.00 kbps avg [профессиональный (полное дублирование)]
Аудио #2: Русский: 48 kHz, AC3 Dolby Digital, 3/2 (L,C,R,l,r) + LFE ch, ~448.00 kbps avg [профессиональный (двухголосый)]
Аудио #3: Немецкий: 48.0 kHz, AC3 Dolby Digital, 2/0 (L,R) ch, ~192 kbps [Оригинал]

Complete name : D:\Mefisto.1981.DVDRip.2,9gb.mkv
Format : Matroska
File size : 2.91 GiB
Duration : 2h 18mn
Overall bit rate : 3 015 Kbps
Encoded date : UTC 2017-11-22
Writing application : Lavf55.11.101
Writing library : Lavf55.11.101

Video
ID : 1
Format : AVC
Format/Info : Advanced Video Codec
Format profile :
Format settings, CABAC : No
Format settings, ReFrames : 5 frames
Codec ID : V_MPEG4/ISO/AVC
Duration : 2h 18mn
Bit rate : 1 867 Kbps
Width : 856 pixels
Height : 480 pixels
Display aspect ratio : 16:9
Original display aspect ratio : 16:9
Frame rate mode : Variable
Frame rate : 25.000 fps
Color space : YUV
Chroma subsampling : 4:2:0
Bit depth : 8 bits
Scan type : Progressive
Bits/(Pixel*Frame) : 0.182
Stream size : 1.80 GiB (62%)

Audio #1
ID : 2
Format : AC-3
Format/Info : Audio Coding 3
Mode extension : CM (complete main)
Codec ID : A_AC3
Duration : 2h 18mn
Bit rate mode : Constant
Bit rate : 448 Kbps
Channel(s) : 6 channels
Channel positions : Front: L C R, Side: L R, LFE
Sampling rate : 48.0 KHz
Bit depth : 16 bits
Stream size : 443 MiB (15%)
Language : Russian (DUB)

Audio #2
ID : 3
Format : AC-3
Format/Info : Audio Coding 3
Mode extension : CM (complete main)
Codec ID : A_AC3
Duration : 2h 18mn
Bit rate mode : Constant
Bit rate : 448 Kbps
Channel(s) : 6 channels
Channel positions : Front: L C R, Side: L R, LFE
Sampling rate : 48.0 KHz
Bit depth : 16 bits
Stream size : 443 MiB (15%)
Language : Russian (DVO)

Audio #3
ID : 4
Format : AC-3
Format/Info : Audio Coding 3
Mode extension : CM (complete main)
Codec ID : A_AC3
Duration : 2h 18mn
Bit rate mode : Constant
Bit rate : 192 Kbps
Channel(s) : 2 channels
Channel positions : Front: L R
Sampling rate : 48.0 KHz
Bit depth : 16 bits
Stream size : 190 MiB (6%)
Language : Deutsch (Origin)





















   Похожие торренты   Торрент   Размер 
В этой теме нет новых непрочитанных сообщений. Мефисто / Mephisto (1981) DVDRip-AVC

7 | 2

2.72 ГБ

В этой теме нет новых непрочитанных сообщений. Мефисто / Mephisto (1981) DVDRip | D

5 | 2

2.24 ГБ

В этой теме нет новых непрочитанных сообщений. Мефисто / Mephisto (1981) DVD9

8 | 2

7.83 ГБ

В этой теме нет новых непрочитанных сообщений. Вальс Мефистофеля / Der Mephisto-Waltzer / The Mephisto Waltz (1971) DVDRip

10 | 4

1.52 ГБ

В этой теме нет новых непрочитанных сообщений. Рука / The Hand (Оливер Стоун) [1981, ужасы, триллер, драма, DVDRip] MVO

2 | 3

1.36 ГБ

В этой теме нет новых непрочитанных сообщений. Миклош Сабо / Szabo Miklos - Команда Альфа / lfa Team (1965) DJVU

10 | 0

24.28 МБ

В этой теме нет новых непрочитанных сообщений. Бокс. Энтони Дуглас - Иштван Зили + Андеркарт [17.07] (2015) HDTV 720p | 60 fps

28 | 15

7.78 ГБ




Вы не можете начинать темы
Вы не можете отвечать на сообщения
Вы не можете редактировать свои сообщения
Вы не можете удалять свои сообщения
Вы не можете добавлять вложения

Перейти:  
Для Мосгорсуда, Роскомнадзора и рекламодателей: mosgorsud-torrent[собачка]yandex.ru
 Вход
ppkBB3cker v.2 © 2008-2014 @ PPK
[ Time : 0.046s | 18 Queries | GZIP : Off ]

cron