img image001 image001 image001 image001 image001 image001 image001 image001 image001 image001 image001 image001 image001 image001 image001

Planets Sun Sun Sun
Статистика раздачи
Автор: Снежана | Размер: 7.76 ГБ | Добавлен: 22 июл 2013
Раздают: 43    Качают: 11
Скачать торрент
Скачать торрент
Описание торрента

СообщениеДобавлено: 22 июл 2013 

#77

Информация о фильме
Название: Бегущий по лезвию
Оригинальное название: Blade Runner
Год выхода: 1982
Жанр: фантастика, триллер, драма, мелодрама
Режиссер: Ридли Скотт / Ridley Scott
В ролях: Харрисон Форд, Рутгер Хауэр, Шон Янг, Дэрил Ханна, Брайон Джеймс, Эдвард Джеймс Олмос, Джоанна Кэссиди

О фильме:
Отставной детектив Рик Декард вновь восстановлен в полиции Лос-Анджелеса для поиска возглавляемой Роем Батти группы киборгов, совершившей побег из космической колонии на Землю.
В полиции считают, что киборги пытаются встретиться с Эндолом Тайреллом, руководителем корпорации, ставящей эксперименты над кибернетическим интеллектом. Рик Декард получает задание выяснить мотивы действий киборгов, а затем уничтожить их.



Выпущено: США, Гонконг, Великобритания
Продолжительность: 01:57:36
Перевод: Дублированный + Оригинал

Файл
Кодек: x264
Качество: BDRip 1080p
Видео: 1920x800, 8168 Kbps, 23.976 fps
Аудио #1: AC-3, 6 ch, 640 kbps (Rus)
Аудио #2: AC-3, 6 ch, 640 kbps (Eng)
Cубтитры: русские, английские

Общее
Уникальный идентификатор : 205316852590567674699850860086083659212 (0x9A769663114D74C8964F3AAEF6DF25CC)
Полное имя : Бегущий по лезвию.1982.BDRip.1080p.Rus.Eng.mkv
Формат : Matroska
Версия формата : Version 4 / Version 2
Размер файла : 7,76 Гбайт
Продолжительность : 1 ч. 57 м.
Общий поток : 9441 Кбит/сек
Название фильма : Бегущий по лезвию.1982
Дата кодирования : UTC 2010-02-22 21:41:31
Программа кодирования : mkvmerge v5.8.0 ('No Sleep / Pillow') built on Sep 30 2012 10:57:14
Библиотека кодирования : libebml v1.3.0 + libmatroska v1.4.0

Видео
Идентификатор : 1
Формат : AVC
Формат/Информация : Advanced Video Codec
Профиль формата : [email protected]
Параметр CABAC формата : Да
Параметр ReFrames формата : 5 кадров
Идентификатор кодека : V_MPEG4/ISO/AVC
Продолжительность : 1 ч. 57 м.
Битрейт : 8168 Кбит/сек
Ширина : 1920 пикселей
Высота : 800 пикселей
Соотношение сторон : 2,40:1
Режим частоты кадров : Постоянный
Частота кадров : 23,976 кадра/сек
Цветовое пространство : YUV
Субдискретизация насыщенности : 4:2:0
Битовая глубина : 8 бит
Тип развёртки : Прогрессивная
Бит/(Пиксели*Кадры) : 0.222
Размер потока : 6,55 Гбайт (84%)
Заголовок : Rip by Boriy
Библиотека кодирования : x264 core 128 r2216 198a7ea
Настройки программы : cabac=1 / ref=5 / deblock=1:0:0 / analyse=0x3:0x113 / me=umh / subme=10 / psy=1 / psy_rd=1.00:0.10 / mixed_ref=1 / me_range=32 / chroma_me=1 / trellis=2 / 8x8dct=1 / cqm=0 / deadzone=21,11 / fast_pskip=0 / chroma_qp_offset=-3 / threads=12 / lookahead_threads=2 / sliced_threads=0 / nr=0 / decimate=0 / interlaced=0 / bluray_compat=0 / constrained_intra=0 / bframes=5 / b_pyramid=2 / b_adapt=2 / b_bias=0 / direct=3 / weightb=1 / open_gop=0 / weightp=2 / keyint=240 / keyint_min=23 / scenecut=40 / intra_refresh=0 / rc=2pass / mbtree=0 / bitrate=8168 / ratetol=1.0 / qcomp=0.60 / qpmin=0 / qpmax=69 / qpstep=4 / cplxblur=20.0 / qblur=0.5 / ip_ratio=1.40 / pb_ratio=1.30 / aq=1:0.80
Язык : English
Default : Да
Forced : Нет

Аудио #1
Идентификатор : 2
Формат : AC-3
Формат/Информация : Audio Coding 3
Расширение режима : CM (complete main)
Параметр Endianness формата : Big
Идентификатор кодека : A_AC3
Продолжительность : 1 ч. 57 м.
Вид битрейта : Постоянный
Битрейт : 640 Кбит/сек
Каналы : 6 каналов
Расположение каналов : Front: L C R, Side: L R, LFE
Частота : 48,0 КГц
Битовая глубина : 16 бит
Метод сжатия : С потерями
Размер потока : 538 Мбайт (7%)
Заголовок : Дубляж
Язык : Russian
Default : Да
Forced : Нет

Аудио #2
Идентификатор : 3
Формат : AC-3
Формат/Информация : Audio Coding 3
Расширение режима : CM (complete main)
Параметр Endianness формата : Big
Идентификатор кодека : A_AC3
Продолжительность : 1 ч. 57 м.
Вид битрейта : Постоянный
Битрейт : 640 Кбит/сек
Каналы : 6 каналов
Расположение каналов : Front: L C R, Side: L R, LFE
Частота : 48,0 КГц
Битовая глубина : 16 бит
Метод сжатия : С потерями
Размер потока : 538 Мбайт (7%)
Заголовок : Оригинал
Язык : English
Default : Нет
Forced : Нет

Текст #1
Идентификатор : 4
Формат : UTF-8
Идентификатор кодека : S_TEXT/UTF8
Идентификатор кодека/Информация : UTF-8 Plain Text
Язык : Russian
Default : Нет
Forced : Нет

Текст #2
Идентификатор : 5
Формат : UTF-8
Идентификатор кодека : S_TEXT/UTF8
Идентификатор кодека/Информация : UTF-8 Plain Text
Язык : English
Default : Нет
Forced : Нет

Меню
00:00:00.000 : :Chapter 1
00:02:58.178 : :Chapter 2
00:04:31.980 : :Chapter 3
00:07:25.111 : :Chapter 4
00:11:18.260 : :Chapter 5
00:12:58.569 : :Chapter 6
00:16:58.183 : :Chapter 7
00:22:38.815 : :Chapter 8
00:25:04.878 : :Chapter 9
00:27:58.343 : :Chapter 10
00:30:21.486 : :Chapter 11
00:36:19.176 : :Chapter 12
00:41:30.321 : :Chapter 13
00:42:23.999 : :Chapter 14
00:45:56.336 : :Chapter 15
00:48:44.463 : :Chapter 16
00:55:18.898 : :Chapter 17
00:57:27.277 : :Chapter 18
00:59:44.998 : :Chapter 19
01:01:49.414 : :Chapter 20
01:03:16.000 : :Chapter 21
01:07:44.393 : :Chapter 22
01:12:39.521 : :Chapter 23
01:16:13.527 : :Chapter 24
01:20:12.474 : :Chapter 25
01:22:34.532 : :Chapter 26
01:27:07.513 : :Chapter 27
01:28:45.236 : :Chapter 28
01:34:02.219 : :Chapter 29
01:36:54.308 : :Chapter 30
01:41:12.316 : :Chapter 31
01:42:37.276 : :Chapter 32
01:44:31.807 : :Chapter 33
01:45:56.266 : :Chapter 34
01:49:04.496 : :Chapter 35
01:52:21.735 : :Chapter 36
01:57:36.591 : :Chapter 37



   Похожие торренты   Торрент   Размер 
В этой теме нет новых непрочитанных сообщений. Бегущий по лезвию / Blade Runner (1982) BDRip-HEVC 1080p | Final Cut | D

139 | 11

5.84 ГБ

В этой теме нет новых непрочитанных сообщений. Бегущий по лезвию (Полная версия) / Blade Runner (Final Cut) (1982) BDRip (1080p) от HD-Zona-X

278 | 21

8.82 ГБ

В этой теме нет новых непрочитанных сообщений. Бегущий по лезвию / Blade Runner (1982) BDRip-AVC | The Final Cut | D, P, P2, A

305 | 18

3.97 ГБ

В этой теме нет новых непрочитанных сообщений. Бегущий по лезвию / Blade Runner (1982) UHDRip-HEVC 1080p | HDR to SDR converted | Final Cut | D

52 | 9

7.58 ГБ

В этой теме нет новых непрочитанных сообщений. Бегущий по лезвию / Blade Runner (1982) BDRip 720p | Final Cut

69 | 4

5.52 ГБ

В этой теме нет новых непрочитанных сообщений. Бегущий по лезвию / Blade Runner [Final Cut] (1982) BDRip от HELLYWOOD

318 | 142

2.18 ГБ

В этой теме нет новых непрочитанных сообщений. Бегущий по лезвию / Blade Runner [The Final Cut] (1982) BDRip от HQCLUB

230 | 6

2.18 ГБ




Вы не можете начинать темы
Вы не можете отвечать на сообщения
Вы не можете редактировать свои сообщения
Вы не можете удалять свои сообщения
Вы не можете добавлять вложения

Перейти:  
Для Мосгорсуда, Роскомнадзора и рекламодателей: mosgorsud-torrent[собачка]yandex.ru
 Вход
ppkBB3cker v.2 © 2008-2014 @ PPK
[ Time : 0.065s | 18 Queries | GZIP : Off ]

cron