img image001 image001 image001 image001 image001 image001 image001 image001 image001 image001 image001 image001 image001 image001 image001

Planets Sun Sun Sun
Статистика раздачи
Автор: Снежана | Размер: 6.53 ГБ | Добавлен: 22 июл 2013
Раздают: 3    Качают: 4
Скачать торрент
Скачать торрент
Описание торрента

СообщениеДобавлено: 22 июл 2013 

#77

Название: Глаза дракона / Очи дракона
Оригинальное название: Dragon Eyes
Год выхода: 2012
Жанр: Боевик, драма, криминал
Режиссер: Джон Хайамс
В ролях: Жан-Клод Ван Дамм, Питер Уэллер, Кунг Ле, Кристофер Ван Варенберг, Луис Да Силва мл., Кристал Мантекон, Моника Акоста, Эдрик Браун, Эдди Роус, Дэнни Космо Хиггинботтом
О фильме:
Новый Орлеан, наши дни. Как и любой другой процветающий мегаполис мира, - это город контрастов, где есть и блеск, и грязь, встречаются роскошные дворцы и нищенские трущобы, где есть место великим возможностям и невероятным шансам самореализации, а вместе с тем - рискованным случайностям и проблематичным ситуациям. Однако, существуют куда более острые проблемы в виде деятельности организованной преступности и гангстерских группировок, которые интенсивно наращивают свою массу и влияние, повсюду распространяя оружие и наркотики. Страшнее же этого может быть только коррумпированность представителей закона и продажность органов власти. Но даже там, где всё куплено и схвачено, найдутся смельчаки, у которых есть в планах сломать систему и выкорчевать всю гниль устоявшегося порядка вещей. И вот однажды, устав от творящегося беззакония и беспорядка, обычный человек, но бдительный гражданин, бросает вызов «элите» нечистых на руку полицейских и погрязших в коррупции служителей закона, матёрым гангстерам и всесильным заправилам криминального мира. Как оказалось, вступить в неравный бой - лишь капля в море по сравнению с тем, чему суждено случиться дальше…

Страна: США, After Dark Films, Dark Castle Entertainment, Silver Pictures
Продолжительность: 01:27:54
Перевод: Профессиональный, многоголосый - R5 / Профессиональный, двухголосый - НТВ+ / Любительский, двухголосый - Чип и Дейл

Кодек: MPEG-2
Качество: DVD-9
Видео: PAL 16:9 (720x576) VBR
Звук: Английский (Dolby AC3, 6 ch), русский (Dolby AC3, 2 ch)
Субтитры: Английские, русские (wildTH), русские (107miller), финские, французские

Релиз группы NovaLan
Автор релиза Sergei7721
Производство: Blu-Ray Remux > DVD-9
Дата релиза: 29.10.2012




Полное имя : C:UsersСергейDownloadsРаздачиGlaza.drakona.2012.DVD9.NovaLanVIDEO_TSVTS_02_1.VOB
Формат : MPEG-PS
Размер файла : 1024 Мбайт
Продолжительность : 14 м.
Режим общего битрейта : Переменный
Общий поток : 9715 Кбит/сек
Видео
Идентификатор : 224 (0xE0)
Формат : MPEG Video
Версия формата : Version 2
Профиль формата : [email protected]
Параметр BVOP формата : Да
Параметр матрицы формата : Выборочная
Продолжительность : 14 м.
Вид битрейта : Переменный
Битрейт : 8498 Кбит/сек
Максимальный битрейт : 8600 Кбит/сек
Ширина : 720 пикселей
Высота : 576 пикселей
Соотношение сторон : 16:9
Частота кадров : 25,000 кадров/сек
Стандарт вещания : PAL
Цветовое пространство : YUV
Субдискретизация насыщенности : 4:2:0
Битовая глубина : 8 бит
Тип развёртки : Чересстрочная
Порядок развёртки : Верхнее поле первое
Метод сжатия : С потерями
Бит/(Пиксели*Кадры) : 0.820
Размер потока : 896 Мбайт (87%)
Аудио #1
Идентификатор : 189 (0xBD)-128 (0x80)
Формат : AC-3
Формат/Информация : Audio Coding 3
Расширение режима : CM (complete main)
Параметр Endianness формата : Big
Режим смешивания : DVD-Video
Продолжительность : 14 м.
Вид битрейта : Постоянный
Битрейт : 448 Кбит/сек
Каналы : 6 каналов
Расположение каналов : Front: L C R, Side: L R, LFE
Частота : 48,0 КГц
Битовая глубина : 16 бит
Метод сжатия : С потерями
Размер потока : 47,2 Мбайт (5%)
Аудио #2
Идентификатор : 189 (0xBD)-129 (0x81)
Формат : AC-3
Формат/Информация : Audio Coding 3
Расширение режима : CM (complete main)
Параметр Endianness формата : Big
Режим смешивания : DVD-Video
Продолжительность : 14 м.
Вид битрейта : Постоянный
Битрейт : 192 Кбит/сек
Каналы : 2 канала
Расположение каналов : Front: L R
Частота : 48,0 КГц
Битовая глубина : 16 бит
Метод сжатия : С потерями
Размер потока : 20,2 Мбайт (2%)
Аудио #3
Идентификатор : 189 (0xBD)-130 (0x82)
Формат : AC-3
Формат/Информация : Audio Coding 3
Расширение режима : CM (complete main)
Параметр Endianness формата : Big
Режим смешивания : DVD-Video
Продолжительность : 14 м.
Вид битрейта : Постоянный
Битрейт : 192 Кбит/сек
Каналы : 2 канала
Расположение каналов : Front: L R
Частота : 48,0 КГц
Битовая глубина : 16 бит
Метод сжатия : С потерями
Размер потока : 20,2 Мбайт (2%)
Аудио #4
Идентификатор : 189 (0xBD)-131 (0x83)
Формат : AC-3
Формат/Информация : Audio Coding 3
Расширение режима : CM (complete main)
Параметр Endianness формата : Big
Режим смешивания : DVD-Video
Продолжительность : 14 м.
Вид битрейта : Постоянный
Битрейт : 192 Кбит/сек
Каналы : 2 канала
Расположение каналов : Front: L R
Частота : 48,0 КГц
Битовая глубина : 16 бит
Метод сжатия : С потерями
Размер потока : 20,2 Мбайт (2%)

Дополнительно:
Dragon Eyes -
Benind the scenes (За кулисами)




Релиз от:



   Похожие торренты   Торрент   Размер 
В этой теме нет новых непрочитанных сообщений. Очи дракона / Глаза дракона / Dragon Eyes (2012) HDRip | Лицензия

14 | 3

705.39 МБ

В этой теме нет новых непрочитанных сообщений. Глаза дракона / Очи дракона / Dragon Eyes (2012) BDRip от HQCLUB

34 | 4

1.46 ГБ

В этой теме нет новых непрочитанных сообщений. Очи дракона / Глаза дракона / Dragon Eyes (2012) HDRip | Лицензия

97 | 6

1.37 ГБ

В этой теме нет новых непрочитанных сообщений. Очи дракона / Глаза дракона / Dragon Eyes (2012) DVD5

1 | 4

4.13 ГБ

В этой теме нет новых непрочитанных сообщений. Бой до победы / Глаза дракона / Fight to Win / Eyes of the Dragon (1987) DVDRip | А

9 | 5

1.46 ГБ

В этой теме нет новых непрочитанных сообщений. Очи дракона / Dragon Eyes (2012) BDRemux

1 | 4

18.03 ГБ

В этой теме нет новых непрочитанных сообщений. Очи дракона / Dragon Eyes (2012) HDRip | P

10 | 1

1.37 ГБ




Вы не можете начинать темы
Вы не можете отвечать на сообщения
Вы не можете редактировать свои сообщения
Вы не можете удалять свои сообщения
Вы не можете добавлять вложения

Перейти:  
Для Мосгорсуда, Роскомнадзора и рекламодателей: mosgorsud-torrent[собачка]yandex.ru
 Вход
ppkBB3cker v.2 © 2008-2014 @ PPK
[ Time : 0.067s | 17 Queries | GZIP : Off ]

cron