img image001 image001 image001 image001 image001 image001 image001 image001 image001 image001 image001 image001 image001 image001 image001

Planets Sun Sun Sun
Статистика раздачи
Автор: Снежана | Размер: 4.37 ГБ | Добавлен: 23 июл 2013
Раздают: 238    Качают: 9
Скачать торрент
Скачать торрент
Описание торрента

СообщениеДобавлено: 23 июл 2013 

#77

Информация о фильме
Название: Козырные тузы
Оригинальное название: Smokin' Aces
Год выхода: 2006
Жанр: боевик, триллер, драма, криминал
Режиссер: Джо Карнахан
В ролях: Бен Аффлек, Джейсон Бейтман, Джозеф Рускин, Энди Гарсиа, Алекс Рокко, Алишиа Кис, Вейн Ньютон, Рэй Лиотта, Джереми Пивен, Питер Берг, Райан Рейнольдс, Мартин Хендерсон

О фильме:
Бывший протеже гангстерского босса, успешный сценичный комик, решает выступить в суде со свидетельствами против своих бывших друзей. За его голову гангстерами назначена награда в 1 миллион долларов. ФБР всячески пытается укрыть его до суда, но он периодически упорно появляется на людях, привлекая, словно свет в ночи, десятки наемных убийц.

Страна: США, Франция, Великобритания
Продолжительность: 01:48:47
Перевод: Дубляж

Файл
Кодек: x.264
Качество: BDRip 1080p
Видео: 4856 kb/s, 1920x816, 23.976 fps
Звук:
AC3, 448 kb/s (6Ch)-Дубляж
AC3, 448 kb/s (6Ch)-Оригинал
Субтитры: Русские, английские, украинские



General
Format : Matroska
Format version : Version 2
File size : 4.37 GiB
Duration : 1h 48mn
Overall bit rate : 5 753 Kbps
Movie name : Козырные тузы / Smokin' Aces (2006) BDRip 1080p от Neofilm
Encoded date : UTC 2013-02-16 16:11:58
Writing application : mkvmerge v3.3.0 ('Language') built on Mar 24 2010 14:59:24
Writing library : libebml v0.8.0 + libmatroska v0.9.0

Video
ID : 1
Format : AVC
Format/Info : Advanced Video Codec
Format profile : [email protected]
Format settings, CABAC : Yes
Format settings, ReFrames : 5 frames
Codec ID : V_MPEG4/ISO/AVC
Duration : 1h 48mn
Bit rate : 4 856 Kbps
Width : 1 920 pixels
Height : 816 pixels
Display aspect ratio : 2.35:1
Frame rate mode : Constant
Frame rate : 23.976 fps
Color space : YUV
Chroma subsampling : 4:2:0
Bit depth : 8 bits
Scan type : Progressive
Bits/(Pixel*Frame) : 0.129
Stream size : 3.60 GiB (82%)
Title : Козырные тузы / Smokin' Aces (2006) BDRip 1080p
Writing library : x264 core 129 r2245 bc13772
Encoding settings : cabac=1 / ref=5 / deblock=1:-3:-3 / analyse=0x3:0x113 / me=umh / subme=10 / psy=1 / psy_rd=1.00:0.05 / mixed_ref=1 / me_range=32 / chroma_me=1 / trellis=2 / 8x8dct=1 / cqm=0 / deadzone=21,11 / fast_pskip=0 / chroma_qp_offset=-3 / threads=12 / lookahead_threads=2 / sliced_threads=0 / nr=0 / decimate=0 / interlaced=0 / bluray_compat=0 / constrained_intra=0 / bframes=5 / b_pyramid=2 / b_adapt=2 / b_bias=0 / direct=3 / weightb=1 / open_gop=0 / weightp=2 / keyint=240 / keyint_min=23 / scenecut=40 / intra_refresh=0 / rc_lookahead=40 / rc=2pass / mbtree=0 / bitrate=4856 / ratetol=1.0 / qcomp=0.60 / qpmin=0 / qpmax=69 / qpstep=4 / cplxblur=20.0 / qblur=0.5 / vbv_maxrate=50000 / vbv_bufsize=62500 / nal_hrd=none / ip_ratio=1.40 / pb_ratio=1.30 / aq=2:0.70
Language : English
Default : No
Forced : No

Audio #1
ID : 2
Format : AC-3
Format/Info : Audio Coding 3
Mode extension : CM (complete main)
Format settings, Endianness : Big
Codec ID : A_AC3
Duration : 1h 48mn
Bit rate mode : Constant
Bit rate : 448 Kbps
Channel(s) : 6 channels
Channel positions : Front: L C R, Side: L R, LFE
Sampling rate : 48.0 KHz
Bit depth : 16 bits
Compression mode : Lossy
Stream size : 349 MiB (8%)
Language : Russian
Default : Yes
Forced : No

Audio #2
ID : 3
Format : AC-3
Format/Info : Audio Coding 3
Mode extension : CM (complete main)
Format settings, Endianness : Big
Codec ID : A_AC3
Duration : 1h 48mn
Bit rate mode : Constant
Bit rate : 448 Kbps
Channel(s) : 6 channels
Channel positions : Front: L C R, Side: L R, LFE
Sampling rate : 48.0 KHz
Bit depth : 16 bits
Compression mode : Lossy
Stream size : 349 MiB (8%)
Language : English
Default : No
Forced : No

Text #1
ID : 4
Format : UTF-8
Codec ID : S_TEXT/UTF8
Codec ID/Info : UTF-8 Plain Text
Language : Russian
Default : Yes
Forced : No

Text #2
ID : 5
Format : UTF-8
Codec ID : S_TEXT/UTF8
Codec ID/Info : UTF-8 Plain Text
Language : Ukrainian
Default : No
Forced : No

Text #3
ID : 6
Format : UTF-8
Codec ID : S_TEXT/UTF8
Codec ID/Info : UTF-8 Plain Text
Language : English
Default : No
Forced : No

Menu
00:00:00.000 : en:Chapter 00
00:05:43.301 : en:Chapter 01
00:11:14.799 : en:Chapter 02
00:18:20.182 : en:Chapter 03
00:25:49.548 : en:Chapter 04
00:30:19.776 : en:Chapter 05
00:35:39.137 : en:Chapter 06
00:40:19.250 : en:Chapter 07
00:48:22.608 : en:Chapter 08
00:55:46.134 : en:Chapter 09
00:59:58.845 : en:Chapter 10
01:04:17.937 : en:Chapter 11
01:10:15.878 : en:Chapter 12
01:14:52.362 : en:Chapter 13
01:22:16.765 : en:Chapter 14
01:24:53.630 : en:Chapter 15
01:28:15.622 : en:Chapter 16
01:31:14.677 : en:Chapter 17
01:39:25.584 : en:Chapter 18
01:42:18.006 : en:Chapter 19
01:48:47.354 : en:Chapter 20


Релиз от:



   Похожие торренты   Торрент   Размер 
В этой теме нет новых непрочитанных сообщений. Козырные Тузы 2: Бал Смерти / Smokin' Aces 2: Assassins' Ball (2010) BDRip 1080p от Neofilm

214 | 7

4.29 ГБ

В этой теме нет новых непрочитанных сообщений. Козырные тузы / Smokin' Aces (2006) BDRip 1080p

127 | 14

7.94 ГБ

В этой теме нет новых непрочитанных сообщений. Козырные тузы / Smokin' Aces (2006) WEB-DL 1080p | D, A | Open Matte

36 | 8

14.14 ГБ

В этой теме нет новых непрочитанных сообщений. Козырные тузы / Smokin' Aces (2006) BDRip от HELLYWOOD

79 | 8

2.18 ГБ

В этой теме нет новых непрочитанных сообщений. Козырные тузы / Smokin' Aces (2006) BDRip-AVC от Rulya74

104 | 7

2.18 ГБ

В этой теме нет новых непрочитанных сообщений. Козырные тузы / Smokin' Aces (2006) BDRip-AVC от leonardo 59

141 | 6

2.3 ГБ

В этой теме нет новых непрочитанных сообщений. Козырные тузы / Smokin' Aces (2006) BDRip от HQCLUB

15 | 4

2.18 ГБ




Вы не можете начинать темы
Вы не можете отвечать на сообщения
Вы не можете редактировать свои сообщения
Вы не можете удалять свои сообщения
Вы не можете добавлять вложения

Перейти:  
Для Мосгорсуда, Роскомнадзора и рекламодателей: mosgorsud-torrent[собачка]yandex.ru
 Вход
ppkBB3cker v.2 © 2008-2014 @ PPK
[ Time : 0.045s | 18 Queries | GZIP : Off ]

cron