img image001 image001 image001 image001 image001 image001 image001 image001 image001 image001 image001 image001 image001 image001 image001

Planets Sun Sun Sun
Статистика раздачи
Автор: Nickolas3434 | Размер: 5.76 ГБ | Добавлен: 10 авг 2017
Раздают: 153    Качают: 8
Скачать торрент
Скачать торрент
Описание торрента

СообщениеДобавлено: 10 авг 2017 

Информация о фильме
Название: Невеста
Год выхода: 2017
Жанр: Ужасы, триллер
Режиссер: Святослав Подгаевский
В ролях: Виктория Агалакова, Вячеслав Чепурченко, Александра Ребенок, Игорь Хрипунов, Анастасия Акатова, Виктор Соловьев, Мария Арнаут, Лада Чуровская, Евгений Коряковский, Татьяна Филатова
О фильме: После свадьбы Настя уговаривает мужа взять её с собой к его родственникам, которые живут в маленьком, почти заброшенном городке. Но скоро начинает сожалеть о своей просьбе. Семья Вани хочет провести таинственный свадебный обряд по своим традициям, и Настю начинают пугать страшные сны и непонятные предчувствия. Попытка понять что происходит, приводит девушку к жуткой находке — шкатулке с фотографиями мертвых людей.

Выпущено: Россия / ДЕСЯТЬ НОЛЬ ДЕВЯТЬ, Focus Plus Cinema, Planeta Inform
Продолжительность: 01:35:36
Озвучивание: Оригинал [лицензия]
Файл
Формат: MKV
Качество: BDRip 1080p
Видео: MPEG-4 AVC, 6500 kb/s, 1920x800
Аудио: Russian: AC3, 640 kb/s (6 ch), DTS, 1509 kb/s (6 ch)
Субтитры: отсутствуют
x264 [info]: frame I:2406 Avg QP:11.71 size:136612
x264 [info]: frame P:31524 Avg QP:15.00 size: 60907
x264 [info]: frame B:103610 Avg QP:16.08 size: 23130
x264 [info]: consecutive B-frames: 10.0% 2.7% 3.1% 9.1% 9.4% 19.8% 13.0% 6.4% 4.3% 2.2% 3.4% 1.4% 2.4% 12.9%
========================================
Общее
Уникальный идентификатор : 235230574930135688798284854341902899679 (0xB0F7C2C4669683A3A040B9C8149199DF)
Полное имя : E:Загрузки 2Bride.2017.O.BDRip.1080p.mkv
Формат : Matroska
Версия формата : Version 2
Размер файла : 5,76 Гбайт
Продолжительность : 1 ч. 35 м.
Общий поток : 8630 Кбит/сек
Дата кодирования : UTC 2017-07-29 11:45:24
Программа кодирования : mkvmerge v7.8.0 ('River Man') 32bit built on Apr 3 2015 12:11:22
Библиотека кодирования : libebml v1.3.1 + libmatroska v1.4.2

Видео
Идентификатор : 1
Формат : AVC
Формат/Информация : Advanced Video Codec
Профиль формата : [email protected]
Параметр CABAC формата : Да
Параметр ReFrames формата : 5 кадров
Идентификатор кодека : V_MPEG4/ISO/AVC
Продолжительность : 1 ч. 35 м.
Битрейт : 6500 Кбит/сек
Ширина : 1920 пикселей
Высота : 800 пикселей
Соотношение сторон : 2,40:1
Режим частоты кадров : Постоянный
Частота кадров : 23,976 (24000/1001) кадра/сек
Цветовое пространство : YUV
Субдискретизация насыщенности : 4:2:0
Битовая глубина : 8 бит
Тип развёртки : Прогрессивная
Бит/(Пиксели*Кадры) : 0.177
Размер потока : 4,21 Гбайт (73%)
Библиотека кодирования : x264 core 152 r2851 ba24899
Настройки программы : cabac=1 / ref=5 / deblock=1:-3:-3 / analyse=0x3:0x113 / me=umh / subme=11 / psy=1 / psy_rd=1.00:0.00 / mixed_ref=1 / me_range=48 / chroma_me=1 / trellis=2 / 8x8dct=1 / cqm=0 / deadzone=21,11 / fast_pskip=0 / chroma_qp_offset=-2 / threads=12 / lookahead_threads=1 / sliced_threads=0 / nr=0 / decimate=0 / interlaced=0 / bluray_compat=0 / constrained_intra=0 / bframes=13 / b_pyramid=2 / b_adapt=1 / b_bias=0 / direct=3 / weightb=1 / open_gop=1 / weightp=2 / keyint=240 / keyint_min=23 / scenecut=40 / intra_refresh=0 / rc_lookahead=40 / rc=2pass / mbtree=0 / bitrate=6500 / ratetol=1.0 / qcomp=0.60 / qpmin=0 / qpmax=69 / qpstep=4 / cplxblur=20.0 / qblur=0.5 / vbv_maxrate=50000 / vbv_bufsize=62500 / nal_hrd=none / filler=0 / ip_ratio=1.40 / pb_ratio=1.30 / aq=1:1.00
Язык : German
Default : Да
Forced : Нет

Аудио #1
Идентификатор : 2
Формат : AC-3
Формат/Информация : Audio Coding 3
Параметр Endianness формата : Big
Идентификатор кодека : A_AC3
Продолжительность : 1 ч. 35 м.
Вид битрейта : Постоянный
Битрейт : 640 Кбит/сек
Каналы : 6 каналов
Расположение каналов : Front: L C R, Side: L R, LFE
Частота : 48,0 КГц
Частота кадров : 31,250 кадров/сек (1536 spf)
Битовая глубина : 16 бит
Метод сжатия : С потерями
Размер потока : 438 Мбайт (7%)
Язык : Russian
Default : Да
Forced : Нет

Аудио #2
Идентификатор : 3
Формат : DTS
Формат/Информация : Digital Theater Systems
Режим : 16
Параметр Endianness формата : Big
Идентификатор кодека : A_DTS
Продолжительность : 1 ч. 35 м.
Вид битрейта : Постоянный
Битрейт : 1509 Кбит/сек
Каналы : 6 каналов
Расположение каналов : Front: L C R, Side: L R, LFE
Частота : 48,0 КГц
Частота кадров : 93,750 кадра/сек (512 spf)
Битовая глубина : 24 бит
Метод сжатия : С потерями
Размер потока : 1,01 Гбайт (17%)
Язык : Russian
Default : Нет
Forced : Нет

Меню
00:00:00.000 : en:Chapter 1
00:09:37.285 : en:Chapter 2
00:16:03.754 : en:Chapter 3
00:23:36.957 : en:Chapter 4
00:30:27.659 : en:Chapter 5
00:38:54.790 : en:Chapter 6
00:46:40.255 : en:Chapter 7
00:53:40.842 : en:Chapter 8
01:01:15.296 : en:Chapter 9
01:11:00.464 : en:Chapter 10
01:19:08.201 : en:Chapter 11
01:27:11.684 : en:Chapter 12










   Похожие торренты   Торрент   Размер 
В этой теме нет новых непрочитанных сообщений. Невеста (2017) Blu-Ray 1080p | GER Transfer | Лицензия

22 | 5

21.91 ГБ

В этой теме нет новых непрочитанных сообщений. Невеста (2017) BDRip | GER Transfer | Лицензия

43 | 5

744.8 МБ

В этой теме нет новых непрочитанных сообщений. Невеста (2017) BDRip | GER Transfer | Лицензия

65 | 7

1.46 ГБ

В этой теме нет новых непрочитанных сообщений. Невеста (2017) BDRip от HQCLUB | GER Transfer | Лицензия

136 | 10

1.45 ГБ

В этой теме нет новых непрочитанных сообщений. Матрица времени / Before I Fall (2017) BDRip 1080p от OlLanDGroup | RUS Transfer | Лицензия

78 | 7

7.45 ГБ

В этой теме нет новых непрочитанных сообщений. Невеста (2017) BDRip 720p от HELLYWOOD | Лицензия

88 | 2

2.91 ГБ

В этой теме нет новых непрочитанных сообщений. Заложники (2017) Blu-ray 1080p | Rus Transfer | Лицензия

8 | 0

22.36 ГБ




Вы не можете начинать темы
Вы не можете отвечать на сообщения
Вы не можете редактировать свои сообщения
Вы не можете удалять свои сообщения
Вы не можете добавлять вложения

Перейти:  
Для Мосгорсуда, Роскомнадзора и рекламодателей: mosgorsud-torrent[собачка]yandex.ru
 Вход
ppkBB3cker v.2 © 2008-2014 @ PPK
[ Time : 0.050s | 18 Queries | GZIP : Off ]

cron