img image001 image001 image001 image001 image001 image001 image001 image001 image001 image001 image001 image001 image001 image001 image001

Planets Sun Sun Sun
Статистика раздачи
Автор: Nickolas3434 | Размер: 7.03 ГБ | Добавлен: 01 янв 2018
Раздают: 11    Качают: 2
Скачать торрент
Скачать торрент
Описание торрента

СообщениеДобавлено: 01 янв 2018 

Информация о фильме
Название: Дерсу Узала
Год выхода: 1975
Жанр: драма, приключения, биография
Режиссер: Акира Куросава
В ролях: Максим Мунзук, Юрий Соломин, Владимир Кремена, Александр Пятков, Светлана Данильченко, Дмитрий Коршиков, Суйменкул Чокморов, Михаил Бычков, В. Ласточкин, Станислав Марьин
О фильме
Фильм рассказывает об увлекательных путешествиях замечательного русского ученого и писателя В. Арсеньева. В центре повествования образ таежного охотника Дерсу Узала — мудрого, доброго и отважного человека, связанного с Арсеньевым искренней дружбой.

Страна: СССР, Япония
Студия: Мосфильм, Daiei Studios, Atelier 41
Продолжительность: 2:21:45
Перевод: Не требуется
Файл
Кодек: х264
Качество: BDRip 720p
Видео: MPEG-4 AVC, 1280x550, 24 fps, 6282 Кбит/с
Аудио 1: AC3, 6 ch, 448 Кбит/с
Аудио 2: AC3, 2 ch, 224 Кбит/с
Навигация по главам: есть
Релиз от:
Оскар, 1976 год
Победитель (1)
Лучший фильм на иностранном языке — «СССР»

ММКФ, 1975 год
Победитель (2)
Золотой приз
Приз международной ассоциации кинокритиков (ФИПРЕССИ)

x264 [info]: frame I:1009 Avg QP:18.72 size:141199
x264 [info]: frame P:40689 Avg QP:20.31 size: 68390
x264 [info]: frame B:162422 Avg QP:21.99 size: 23657
x264 [info]: consecutive B-frames: 1.2% 1.6% 4.6% 16.5% 19.0% 41.4% 8.7% 3.5% 1.7% 1.6% 0.2%
=================================================================
Общее
Уникальный идентификатор : 205139201088988522665949605055693625283 (0x9A545F7DE0C43F7FBF49301D768C97C3)
Полное имя : Дерсу Узала_1975-BDRip 720p.mkv
Формат : Matroska
Версия формата : Version 2
Размер файла : 7,03 Гбайт
Продолжительность : 2 ч. 21 м.
Общий поток : 7095 Кбит/сек
Дата кодирования : UTC 2017-07-14 13:13:15
Программа кодирования : mkvmerge v5.8.0 ('No Sleep / Pillow') built on Sep 2 2012 15:37:04
Библиотека кодирования : libebml v1.2.3 + libmatroska v1.3.0
Видео
Идентификатор : 1
Формат : AVC
Формат/Информация : Advanced Video Codec
Профиль формата : [email protected]
Параметр CABAC формата : Да
Параметр ReFrames формата : 11 кадров
Идентификатор кодека : V_MPEG4/ISO/AVC
Продолжительность : 2 ч. 21 м.
Битрейт : 6282 Кбит/сек
Ширина : 1280 пикселей
Высота : 550 пикселей
Соотношение сторон : 2,35:1
Режим частоты кадров : Постоянный
Частота кадров : 24,000 кадра/сек
Цветовое пространство : YUV
Субдискретизация насыщенности : 4:2:0
Битовая глубина : 8 бит
Тип развёртки : Прогрессивная
Бит/(Пиксели*Кадры) : 0.372
Размер потока : 6,22 Гбайт (89%)
Заголовок : korsar.tv
Библиотека кодирования : x264 core 148 r2744kMod b97ae06
Настройки программы : cabac=1 / ref=11 / deblock=1:-2:-2 / analyse=0x3:0x113 / me=umh / subme=10 / psy=1 / fade_compensate=0.00 / psy_rd=1.05:0.10 / mixed_ref=1 / me_range=40 / chroma_me=1 / trellis=2 / 8x8dct=1 / cqm=0 / deadzone=21,11 / fast_pskip=1 / chroma_qp_offset=-3 / threads=12 / lookahead_threads=3 / sliced_threads=0 / nr=0 / decimate=1 / interlaced=0 / bluray_compat=0 / constrained_intra=0 / bframes=10 / b_pyramid=2 / b_adapt=2 / b_bias=0 / direct=1 / weightb=1 / open_gop=0 / weightp=2 / keyint=240 / keyint_min=24 / scenecut=40 / intra_refresh=0 / rc_lookahead=40 / rc=crf / mbtree=0 / crf=17.9000 / qcomp=0.60 / qpmin=0 / qpmax=39 / qpstep=4 / vbv_maxrate=50000 / vbv_bufsize=62500 / crf_max=0.0 / nal_hrd=none / filler=0 / ip_ratio=1.40 / pb_ratio=1.30 / aq=3:0.80
Язык : English
Default : Да
Forced : Нет
Цветовой диапазон : Limited
Основные цвета : BT.709
Характеристики трансфера : BT.709
Коэффициенты матрицы : BT.709
Аудио #1
Идентификатор : 2
Формат : AC-3
Формат/Информация : Audio Coding 3
Параметр Endianness формата : Big
Идентификатор кодека : A_AC3
Продолжительность : 2 ч. 21 м.
Вид битрейта : Постоянный
Битрейт : 448 Кбит/сек
Каналы : 6 каналов
Расположение каналов : Front: L C R, Side: L R, LFE
Частота : 48,0 КГц
Частота кадров : 31,250 кадров/сек (1536 spf)
Битовая глубина : 16 бит
Метод сжатия : С потерями
Размер потока : 454 Мбайт (6%)
Язык : Russian
Default : Да
Forced : Нет
Аудио #2
Идентификатор : 3
Формат : AC-3
Формат/Информация : Audio Coding 3
Параметр Endianness формата : Big
Идентификатор кодека : A_AC3
Продолжительность : 2 ч. 21 м.
Вид битрейта : Постоянный
Битрейт : 224 Кбит/сек
Каналы : 2 канала
Расположение каналов : Front: L R
Частота : 48,0 КГц
Частота кадров : 31,250 кадров/сек (1536 spf)
Битовая глубина : 16 бит
Метод сжатия : С потерями
Размер потока : 227 Мбайт (3%)
Язык : Russian
Default : Нет
Forced : Нет
Меню
00:00:00.000 : en:Chapter 1
00:02:07.416 : en:Chapter 2
00:05:27.125 : en:Chapter 3
00:17:24.166 : en:Chapter 4
00:22:00.916 : en:Chapter 5
00:23:46.041 : en:Chapter 6
00:24:52.666 : en:Chapter 7
00:27:13.625 : en:Chapter 8
00:33:35.000 : en:Chapter 9
00:38:50.625 : en:Chapter 10
00:54:58.833 : en:Chapter 11
00:59:36.708 : en:Chapter 12
01:01:31.083 : en:Chapter 13
01:05:54.083 : en:Chapter 14
01:10:28.000 : en:Chapter 15
01:42:14.333 : en:Chapter 16
01:43:53.416 : en:Chapter 17
01:50:34.666 : en:Chapter 18
01:57:37.083 : en:Chapter 19
02:01:04.375 : en:Chapter 20
02:05:33.875 : en:Chapter 21
02:06:59.875 : en:Chapter 22
02:08:58.416 : en:Chapter 23
02:13:20.583 : en:Chapter 24



   Похожие торренты   Торрент   Размер 
В этой теме нет новых непрочитанных сообщений. Дерсу Узала (1975) BDRip

62 | 7

2.18 ГБ

В этой теме нет новых непрочитанных сообщений. Дерсу Узала (1975) BDRip-AVC от ExKinoRay

28 | 4

3.44 ГБ

В этой теме нет новых непрочитанных сообщений. Дерсу Узала (1975) BDRip от HQ-ViDEO

39 | 2

2.18 ГБ

В этой теме нет новых непрочитанных сообщений. Дерсу Узала (1975) DVD9

7 | 10

11.23 ГБ

В этой теме нет новых непрочитанных сообщений. Дерсу Узала (1975) DVD9

3 | 8

6.62 ГБ

В этой теме нет новых непрочитанных сообщений. Дерсу Узала (1975) DVDRip-AVC

33 | 7

2.35 ГБ

В этой теме нет новых непрочитанных сообщений. Дерсу Узала (1975) Blu-Ray ITA 1080p | Лицензия

7 | 1

34.33 ГБ




Вы не можете начинать темы
Вы не можете отвечать на сообщения
Вы не можете редактировать свои сообщения
Вы не можете удалять свои сообщения
Вы не можете добавлять вложения

Перейти:  
Для Мосгорсуда, Роскомнадзора и рекламодателей: mosgorsud-torrent[собачка]yandex.ru
 Вход
ppkBB3cker v.2 © 2008-2014 @ PPK
[ Time : 0.052s | 19 Queries | GZIP : Off ]

cron